<?xml version="1.0" standalone="no"?>
<!DOCTYPE svg PUBLIC "-//W3C//DTD SVG 1.1//EN" "http://www.w3.org/Graphics/SVG/1.1/DTD/svg11.dtd" >
<svg xmlns="http://www.w3.org/2000/svg" xmlns:xlink="http://www.w3.org/1999/xlink" version="1.1">
<metadata>
Created by FontForge 20161003 at Wed Apr 12 15:33:29 2017
 By www-data
Copyright (c) Mark Simonson, 2016. All rights reserved.
</metadata>
<defs>
<font id="MarkSimonsonProximaSoftLight" horiz-adv-x="571" >
  <font-face 
    font-family="MarkSimonsonProximaSoftLight"
    font-weight="300"
    font-stretch="normal"
    units-per-em="1000"
    panose-1="2 0 5 6 3 0 0 2 0 4"
    ascent="790"
    descent="-210"
    x-height="483"
    cap-height="667"
    bbox="-345 -305 1111 1082"
    underline-thickness="20"
    underline-position="-153"
    unicode-range="U+000D-FB04"
  />
<missing-glyph horiz-adv-x="517" 
d="M94.5 -78.5q-11.5 11.5 -11.5 30.5v758q0 19 11.5 30.5t30.5 11.5h267q19 0 30.5 -11.5t11.5 -30.5v-758q0 -19 -11.5 -30.5t-30.5 -11.5h-267q-19 0 -30.5 11.5zM402 722h-288v-782h288v782z" />
    <glyph glyph-name="f_f_j" unicode="ffj" horiz-adv-x="744" 
d="M286.5 662q4.5 -6 4.5 -13q0 -10 -6 -16t-16 -6q-5 0 -15.5 2.5t-19.5 2.5q-41 0 -62.5 -27t-21.5 -78v-44h78q9 0 16.5 -6.5t7.5 -16.5q0 -9 -7.5 -16t-16.5 -7h-78v-414q0 -10 -7.5 -18t-18.5 -8q-10 0 -18 8t-8 18v414h-60q-9 0 -16 6.5t-7 16.5t7 16.5t16 6.5h60v44
q0 71 35 110.5t96 39.5q25 0 45 -7q8 -2 12.5 -8zM551.5 662q4.5 -6 4.5 -13q0 -10 -6 -16t-16 -6q-5 0 -15.5 2.5t-19.5 2.5q-41 0 -62.5 -27t-21.5 -78v-44h78q9 0 16.5 -6.5t7.5 -16.5q0 -9 -7.5 -16t-16.5 -7h-78v-414q0 -10 -7.5 -18t-18.5 -8q-10 0 -18 8t-8 18v414
h-60q-9 0 -16 6.5t-7 16.5t7 16.5t16 6.5h60v44q0 71 35 110.5t96 39.5q25 0 45 -7q8 -2 12.5 -8zM609 595q-12 12 -12 28t12 28t28 12q17 0 28.5 -11.5t11.5 -28.5q0 -16 -11.5 -28t-28.5 -12q-16 0 -28 12zM502 -192q-9 2 -14.5 8t-5.5 15t6 16t15 7q3 0 10 -2t18 -2
q37 0 58.5 21.5t21.5 66.5v522q0 11 8 18.5t18 7.5q11 0 18.5 -7.5t7.5 -18.5v-522q0 -66 -33.5 -100t-94.5 -34q-18 0 -33 4z" />
    <glyph glyph-name="f_j" unicode="fj" horiz-adv-x="479" 
d="M286.5 662q4.5 -6 4.5 -13q0 -10 -6 -16t-16 -6q-5 0 -15.5 2.5t-19.5 2.5q-41 0 -62.5 -27t-21.5 -78v-44h78q9 0 16.5 -6.5t7.5 -16.5q0 -9 -7.5 -16t-16.5 -7h-78v-414q0 -10 -7.5 -18t-18.5 -8q-10 0 -18 8t-8 18v414h-60q-9 0 -16 6.5t-7 16.5t7 16.5t16 6.5h60v44
q0 71 35 110.5t96 39.5q25 0 45 -7q8 -2 12.5 -8zM344 595q-12 12 -12 28t12 28t28 12q17 0 28.5 -11.5t11.5 -28.5q0 -16 -11.5 -28t-28.5 -12q-16 0 -28 12zM237 -192q-9 2 -14.5 8t-5.5 15t6 16t15 7q3 0 10 -2t18 -2q37 0 58.5 21.5t21.5 66.5v522q0 11 8 18.5t18 7.5
q11 0 18.5 -7.5t7.5 -18.5v-522q0 -66 -33.5 -100t-94.5 -34q-18 0 -33 4z" />
    <glyph glyph-name="f_f" unicode="ff" horiz-adv-x="530" 
d="M286.5 662q4.5 -6 4.5 -13q0 -10 -6 -16t-16 -6q-5 0 -15.5 2.5t-19.5 2.5q-41 0 -62.5 -27t-21.5 -78v-44h78q9 0 16.5 -6.5t7.5 -16.5q0 -9 -7.5 -16t-16.5 -7h-78v-414q0 -10 -7.5 -18t-18.5 -8q-10 0 -18 8t-8 18v414h-60q-9 0 -16 6.5t-7 16.5t7 16.5t16 6.5h60v44
q0 71 35 110.5t96 39.5q25 0 45 -7q8 -2 12.5 -8zM551.5 662q4.5 -6 4.5 -13q0 -10 -6 -16t-16 -6q-5 0 -15.5 2.5t-19.5 2.5q-41 0 -62.5 -27t-21.5 -78v-44h78q9 0 16.5 -6.5t7.5 -16.5q0 -9 -7.5 -16t-16.5 -7h-78v-414q0 -10 -7.5 -18t-18.5 -8q-10 0 -18 8t-8 18v414
h-60q-9 0 -16 6.5t-7 16.5t7 16.5t16 6.5h60v44q0 71 35 110.5t96 39.5q25 0 45 -7q8 -2 12.5 -8z" />
    <glyph glyph-name="fi" unicode="fi" horiz-adv-x="479" 
d="M286.5 662q4.5 -6 4.5 -13q0 -10 -6 -16t-16 -6q-5 0 -15.5 2.5t-19.5 2.5q-41 0 -62.5 -27t-21.5 -78v-44h78q9 0 16.5 -6.5t7.5 -16.5q0 -9 -7.5 -16t-16.5 -7h-78v-414q0 -10 -7.5 -18t-18.5 -8q-10 0 -18 8t-8 18v414h-60q-9 0 -16 6.5t-7 16.5t7 16.5t16 6.5h60v44
q0 71 35 110.5t96 39.5q25 0 45 -7q8 -2 12.5 -8zM344 595q-12 12 -12 28t12 28t28 12q17 0 28.5 -11.5t11.5 -28.5q0 -16 -11.5 -28t-28.5 -12q-16 0 -28 12zM354 5q-8 8 -8 18v437q0 11 8 18.5t18 7.5q11 0 18.5 -7.5t7.5 -18.5v-437q0 -10 -7.5 -18t-18.5 -8q-10 0 -18 8
z" />
    <glyph glyph-name="fl" unicode="fl" horiz-adv-x="479" 
d="M286.5 662q4.5 -6 4.5 -13q0 -10 -6 -16t-16 -6q-5 0 -15.5 2.5t-19.5 2.5q-41 0 -62.5 -27t-21.5 -78v-44h78q9 0 16.5 -6.5t7.5 -16.5q0 -9 -7.5 -16t-16.5 -7h-78v-414q0 -10 -7.5 -18t-18.5 -8q-10 0 -18 8t-8 18v414h-60q-9 0 -16 6.5t-7 16.5t7 16.5t16 6.5h60v44
q0 71 35 110.5t96 39.5q25 0 45 -7q8 -2 12.5 -8zM354 5q-8 8 -8 18v621q0 11 8 18.5t18 7.5q11 0 18.5 -7.5t7.5 -18.5v-621q0 -10 -7.5 -18t-18.5 -8q-10 0 -18 8z" />
    <glyph glyph-name="f_f_i" unicode="ffi" horiz-adv-x="744" 
d="M286.5 662q4.5 -6 4.5 -13q0 -10 -6 -16t-16 -6q-5 0 -15.5 2.5t-19.5 2.5q-41 0 -62.5 -27t-21.5 -78v-44h78q9 0 16.5 -6.5t7.5 -16.5q0 -9 -7.5 -16t-16.5 -7h-78v-414q0 -10 -7.5 -18t-18.5 -8q-10 0 -18 8t-8 18v414h-60q-9 0 -16 6.5t-7 16.5t7 16.5t16 6.5h60v44
q0 71 35 110.5t96 39.5q25 0 45 -7q8 -2 12.5 -8zM551.5 662q4.5 -6 4.5 -13q0 -10 -6 -16t-16 -6q-5 0 -15.5 2.5t-19.5 2.5q-41 0 -62.5 -27t-21.5 -78v-44h78q9 0 16.5 -6.5t7.5 -16.5q0 -9 -7.5 -16t-16.5 -7h-78v-414q0 -10 -7.5 -18t-18.5 -8q-10 0 -18 8t-8 18v414
h-60q-9 0 -16 6.5t-7 16.5t7 16.5t16 6.5h60v44q0 71 35 110.5t96 39.5q25 0 45 -7q8 -2 12.5 -8zM609 595q-12 12 -12 28t12 28t28 12q17 0 28.5 -11.5t11.5 -28.5q0 -16 -11.5 -28t-28.5 -12q-16 0 -28 12zM619 5q-8 8 -8 18v437q0 11 8 18.5t18 7.5q11 0 18.5 -7.5
t7.5 -18.5v-437q0 -10 -7.5 -18t-18.5 -8q-10 0 -18 8z" />
    <glyph glyph-name="f_f_l" unicode="ffl" horiz-adv-x="744" 
d="M286.5 662q4.5 -6 4.5 -13q0 -10 -6 -16t-16 -6q-5 0 -15.5 2.5t-19.5 2.5q-41 0 -62.5 -27t-21.5 -78v-44h78q9 0 16.5 -6.5t7.5 -16.5q0 -9 -7.5 -16t-16.5 -7h-78v-414q0 -10 -7.5 -18t-18.5 -8q-10 0 -18 8t-8 18v414h-60q-9 0 -16 6.5t-7 16.5t7 16.5t16 6.5h60v44
q0 71 35 110.5t96 39.5q25 0 45 -7q8 -2 12.5 -8zM551.5 662q4.5 -6 4.5 -13q0 -10 -6 -16t-16 -6q-5 0 -15.5 2.5t-19.5 2.5q-41 0 -62.5 -27t-21.5 -78v-44h78q9 0 16.5 -6.5t7.5 -16.5q0 -9 -7.5 -16t-16.5 -7h-78v-414q0 -10 -7.5 -18t-18.5 -8q-10 0 -18 8t-8 18v414
h-60q-9 0 -16 6.5t-7 16.5t7 16.5t16 6.5h60v44q0 71 35 110.5t96 39.5q25 0 45 -7q8 -2 12.5 -8zM619 5q-8 8 -8 18v621q0 11 8 18.5t18 7.5q11 0 18.5 -7.5t7.5 -18.5v-621q0 -10 -7.5 -18t-18.5 -8q-10 0 -18 8z" />
    <glyph glyph-name="f_b" unicode="fb" horiz-adv-x="836" 
d="M286.5 662q4.5 -6 4.5 -13q0 -10 -6 -16t-16 -6q-5 0 -15.5 2.5t-19.5 2.5q-41 0 -62.5 -27t-21.5 -78v-44h78q9 0 16.5 -6.5t7.5 -16.5q0 -9 -7.5 -16t-16.5 -7h-78v-414q0 -10 -7.5 -18t-18.5 -8q-10 0 -18 8t-8 18v414h-60q-9 0 -16 6.5t-7 16.5t7 16.5t16 6.5h60v44
q0 71 35 110.5t96 39.5q25 0 45 -7q8 -2 12.5 -8zM679 463.5q49 -31.5 76 -89t27 -133.5t-27 -133.5t-76 -88.5t-113 -31q-51 0 -95.5 25t-72.5 64v-54q0 -10 -7.5 -18t-18.5 -8q-10 0 -18 8t-8 18v621q0 11 8 18.5t18 7.5q11 0 18.5 -7.5t7.5 -18.5v-239q30 43 73.5 66.5
t94.5 23.5q64 0 113 -31.5zM681 93q45 58 45 148q0 91 -45 149t-124 58q-48 0 -92.5 -26t-66.5 -62v-239q22 -36 66 -61t93 -25q79 0 124 58z" />
    <glyph glyph-name="f_h" unicode="fh" horiz-adv-x="805" 
d="M286.5 662q4.5 -6 4.5 -13q0 -10 -6 -16t-16 -6q-5 0 -15.5 2.5t-19.5 2.5q-41 0 -62.5 -27t-21.5 -78v-44h78q9 0 16.5 -6.5t7.5 -16.5q0 -9 -7.5 -16t-16.5 -7h-78v-414q0 -10 -7.5 -18t-18.5 -8q-10 0 -18 8t-8 18v414h-60q-9 0 -16 6.5t-7 16.5t7 16.5t16 6.5h60v44
q0 71 35 110.5t96 39.5q25 0 45 -7q8 -2 12.5 -8zM680 5q-8 8 -8 18v306q0 66 -30 92.5t-87 26.5q-45 0 -89 -24t-68 -59v-342q0 -10 -7.5 -18t-18.5 -8q-10 0 -18 8t-8 18v621q0 11 8 18.5t18 7.5q11 0 18.5 -7.5t7.5 -18.5v-234q29 34 77 59.5t97 25.5q75 0 113.5 -37.5
t38.5 -117.5v-317q0 -10 -7.5 -18t-18.5 -8q-10 0 -18 8z" />
    <glyph glyph-name="f_k" unicode="fk" horiz-adv-x="770" 
d="M286.5 662q4.5 -6 4.5 -13q0 -10 -6 -16t-16 -6q-5 0 -15.5 2.5t-19.5 2.5q-41 0 -62.5 -27t-21.5 -78v-44h78q9 0 16.5 -6.5t7.5 -16.5q0 -9 -7.5 -16t-16.5 -7h-78v-414q0 -10 -7.5 -18t-18.5 -8q-10 0 -18 8t-8 18v414h-60q-9 0 -16 6.5t-7 16.5t7 16.5t16 6.5h60v44
q0 71 35 110.5t96 39.5q25 0 45 -7q8 -2 12.5 -8zM729 24q0 -11 -7.5 -19t-18.5 -8q-13 0 -21 9l-194 224l-90 -85v-122q0 -10 -7.5 -18t-18.5 -8q-10 0 -18 8t-8 18v621q0 11 8 18.5t18 7.5q11 0 18.5 -7.5t7.5 -18.5v-436l287 272q8 6 17 6q10 0 17 -7.5t7 -17.5t-8 -18
l-190 -179l195 -222q6 -7 6 -18z" />
    <glyph glyph-name=".notdef" horiz-adv-x="517" 
d="M94.5 -78.5q-11.5 11.5 -11.5 30.5v758q0 19 11.5 30.5t30.5 11.5h267q19 0 30.5 -11.5t11.5 -30.5v-758q0 -19 -11.5 -30.5t-30.5 -11.5h-267q-19 0 -30.5 11.5zM402 722h-288v-782h288v782z" />
    <glyph glyph-name=".null" horiz-adv-x="0" 
 />
    <glyph glyph-name="nonmarkingreturn" unicode="&#xd;" horiz-adv-x="0" 
 />
    <glyph glyph-name="NULL" horiz-adv-x="0" 
 />
    <glyph glyph-name="NULL" horiz-adv-x="0" 
 />
    <glyph glyph-name="space" unicode=" " horiz-adv-x="259" 
 />
    <glyph glyph-name="exclam" unicode="!" horiz-adv-x="219" 
d="M95 177q-6 6 -7 14l-12 445q0 14 10 24t23 10q14 0 24 -10t10 -24l-12 -445q0 -8 -6.5 -14t-15.5 -6q-8 0 -14 6zM78.5 65q12.5 13 30.5 13t31.5 -13t13.5 -30q0 -18 -13.5 -31t-31.5 -13t-30.5 13t-12.5 31q0 17 12.5 30z" />
    <glyph glyph-name="quotedbl" unicode="&#x22;" horiz-adv-x="317" 
d="M82.5 428q-4.5 4 -5.5 11q-5 50 -11 111.5t-8 90.5q0 15 10 25.5t26 10.5q15 0 25.5 -10.5t10.5 -25.5q0 -18 -20 -202q0 -6 -5 -10.5t-11 -4.5q-7 0 -11.5 4zM212 428.5q-5 4.5 -5 10.5q-5 40 -11.5 107.5t-8.5 94.5q0 15 10.5 25.5t25.5 10.5t25.5 -10.5t10.5 -25.5
q-2 -27 -7.5 -86.5t-11.5 -115.5q-1 -7 -5.5 -11t-11.5 -4q-6 0 -11 4.5z" />
    <glyph glyph-name="numbersign" unicode="#" horiz-adv-x="579" 
d="M545.5 475q6.5 -6 6.5 -15q0 -8 -6.5 -14t-14.5 -6h-100l-73 -213h92q8 0 14.5 -6t6.5 -15q0 -8 -6.5 -14t-14.5 -6h-104l-58 -174q-2 -7 -8 -11t-14 -4q-9 0 -15.5 6.5t-6.5 14.5q0 4 3 13l53 155h-118l-58 -174q-2 -7 -8 -11t-14 -4q-9 0 -15.5 7t-6.5 15q0 4 2 10
l53 157h-86q-8 0 -14.5 6t-6.5 14q0 9 6.5 15t14.5 6h99l72 213h-89q-8 0 -14 6t-6 14q0 9 6 15t14 6h103l57 174q2 7 8 11t13 4q10 0 16.5 -6.5t6.5 -15.5q0 -4 -2 -10l-52 -157h117l57 174q2 7 8 11t14 4q9 0 15.5 -7t6.5 -15q0 -4 -2 -10l-53 -157h87q8 0 14.5 -6z
M311 227l73 213h-117l-72 -213h116z" />
    <glyph glyph-name="dollar" unicode="$" horiz-adv-x="584" 
d="M508.5 91q-20.5 -41 -67.5 -69.5t-122 -32.5v-69q0 -9 -6.5 -16t-16.5 -7t-16.5 7t-6.5 16v68q-64 3 -117 26.5t-91 61.5q-9 8 -9 21q0 12 8.5 20.5t20.5 8.5q10 0 19 -7q32 -32 75 -53t94 -25v281q-65 18 -106.5 36t-69.5 52.5t-28 89.5q0 51 27 90t73.5 61.5
t103.5 25.5v71q0 9 6.5 16t16.5 7t16.5 -7t6.5 -16v-72q106 -7 176 -74q11 -9 11 -22q0 -11 -8.5 -19.5t-20.5 -8.5t-18 7q-54 55 -140 64v-251q65 -18 108.5 -38.5t72.5 -58.5t29 -98q0 -45 -20.5 -86zM165.5 430q36.5 -25 107.5 -45v240q-62 -3 -103 -37t-41 -85
q0 -48 36.5 -73zM434 86q35 39 35 87q0 57 -39 86t-111 50v-267q80 5 115 44z" />
    <glyph glyph-name="percent" unicode="%" horiz-adv-x="720" 
d="M77.5 396q-43.5 46 -43.5 116q0 47 20 84.5t55.5 59t80.5 21.5q46 0 81.5 -21.5t55.5 -59t20 -84.5q0 -70 -44 -116t-113 -46t-112.5 46zM147 2.5q-6 5.5 -6 13.5q0 5 4 11l404 634q6 9 17 9q8 0 13.5 -5.5t5.5 -13.5q0 -5 -2 -11l-407 -634q-5 -9 -15 -9q-8 0 -14 5.5z
M270 422.5q31 36.5 31 89.5q0 54 -31 91t-80 37q-48 0 -79 -37t-31 -91q0 -53 31 -89.5t79 -36.5q49 0 80 36.5zM449 9.5q-36 21.5 -56 58.5t-20 83q0 47 20 84.5t56 59t81 21.5t81 -21.5t56 -59t20 -84.5q0 -46 -20 -83t-56 -58.5t-81 -21.5t-81 21.5zM609.5 61.5
q30.5 36.5 30.5 89.5q0 54 -30.5 90.5t-79.5 36.5t-80 -36.5t-31 -90.5q0 -53 31 -89.5t80 -36.5t79.5 36.5z" />
    <glyph glyph-name="ampersand" unicode="&#x26;" horiz-adv-x="639" 
d="M571 24q0 -11 -8 -19t-19 -8q-9 0 -17 6q-31 26 -86 79q-84 -94 -198 -94q-87 0 -144 48t-57 134q0 72 39.5 118t109.5 85q-55 89 -55 152q0 43 21.5 78t57.5 54.5t80 19.5q63 0 101.5 -33.5t38.5 -92.5q0 -47 -23.5 -80.5t-56 -55.5t-92.5 -54q32 -46 85 -105
q30 -35 90 -97q40 61 67 138q3 7 9.5 12t14.5 5q11 0 18.5 -7t7.5 -18q0 -4 -3 -12q-21 -49 -38 -84.5t-40 -67.5q35 -34 87 -79q10 -9 10 -22zM238 398q49 25 78 44t48 45.5t19 61.5q0 40 -24.5 62t-62.5 22q-43 0 -73.5 -31t-30.5 -78q0 -50 46 -126zM406 117
q-64 63 -101 105q-55 65 -89 113q-55 -33 -85.5 -70.5t-30.5 -91.5q0 -65 43 -102t104 -37q87 0 159 83z" />
    <glyph glyph-name="quotesingle" unicode="'" horiz-adv-x="187" 
d="M82.5 428q-4.5 4 -5.5 11q-5 50 -11 111.5t-8 90.5q0 15 10 25.5t26 10.5q15 0 25.5 -10.5t10.5 -25.5q0 -18 -20 -202q0 -6 -5 -10.5t-11 -4.5q-7 0 -11.5 4z" />
    <glyph glyph-name="parenleft" unicode="(" horiz-adv-x="227" 
d="M168 -183q-122 195 -122 426q0 230 122 427q6 9 17 9q8 0 14.5 -6t6.5 -14q0 -3 -3 -11q-50 -102 -74.5 -195t-24.5 -210t24.5 -210t74.5 -195q3 -6 3 -11q0 -8 -6 -14t-15 -6q-10 0 -17 10z" />
    <glyph glyph-name="parenright" unicode=")" horiz-adv-x="227" 
d="M27 -187q-6 6 -6 14q0 5 3 11q50 103 74.5 195.5t24.5 209.5t-24.5 210t-74.5 195q-3 8 -3 11q0 8 6 14t14 6q13 0 17 -9q124 -197 124 -427t-124 -426q-5 -10 -17 -10q-8 0 -14 6z" />
    <glyph glyph-name="asterisk" unicode="*" horiz-adv-x="335" 
d="M154.5 401.5q-5.5 5.5 -4.5 13.5l4 101l-85 -55q-4 -3 -10 -3q-7 0 -12 5.5t-5 12.5q0 10 10 16l89 46l-89 46q-10 4 -10 16q0 7 5 12.5t12 5.5q6 0 10 -3l85 -55l-4 101v2q0 7 5 12t12 5q8 0 13.5 -5.5t4.5 -13.5l-5 -101l85 55q4 3 10 3q8 0 13 -5t5 -13q0 -11 -10 -16
l-89 -46l89 -46q10 -7 10 -16q0 -7 -5 -12.5t-13 -5.5q-7 0 -10 3l-85 55l5 -101v-2q0 -7 -5.5 -12t-12.5 -5t-12.5 5.5z" />
    <glyph glyph-name="plus" unicode="+" horiz-adv-x="496" 
d="M271 118q0 -9 -6.5 -15.5t-16.5 -6.5q-9 0 -15.5 6.5t-6.5 15.5v198h-179q-8 0 -14.5 6.5t-6.5 14.5t6.5 14.5t14.5 6.5h179v192q0 8 6.5 15t15.5 7q10 0 16.5 -6.5t6.5 -15.5v-192h179q8 0 14.5 -6.5t6.5 -14.5t-6.5 -14.5t-14.5 -6.5h-179v-198z" />
    <glyph glyph-name="comma" unicode="," horiz-adv-x="219" 
d="M85 -119q-8 0 -13 5.5t-5 13.5t5 13q20 19 31.5 40.5t12.5 40.5q-3 -1 -10 -1q-18 0 -29.5 12t-11.5 30q0 17 12.5 30t30.5 13q21 0 36 -17t15 -47q0 -36 -17 -70t-44 -59q-4 -4 -13 -4z" />
    <glyph glyph-name="hyphen" unicode="-" horiz-adv-x="300" 
d="M34 225q-7 7 -7 17t7 17t17 7h198q10 0 17 -7t7 -17t-7 -17t-17 -7h-198q-10 0 -17 7z" />
    <glyph glyph-name="period" unicode="." horiz-adv-x="219" 
d="M78 65q13 13 31 13t31.5 -13t13.5 -30q0 -18 -13.5 -31.5t-31.5 -13.5t-31 13.5t-13 31.5q0 17 13 30z" />
    <glyph glyph-name="slash" unicode="/" horiz-adv-x="282" 
d="M13.5 -17q-6.5 6 -6.5 15q0 4 2 10l224 668q2 6 8 10t12 4q10 0 16 -6.5t6 -15.5l-2 -9l-224 -668q-2 -6 -8 -10t-12 -4q-9 0 -15.5 6z" />
    <glyph glyph-name="zero" unicode="0" horiz-adv-x="608" 
d="M83.5 497.5q25.5 78.5 81 129t140.5 50.5q84 0 139.5 -50.5t81 -129t25.5 -164.5q0 -85 -25.5 -164t-81 -130t-139.5 -51q-85 0 -140.5 51t-81 129.5t-25.5 164.5t25.5 164.5zM445.5 539q-44.5 86 -140.5 86q-97 0 -142 -86t-45 -206t45 -206.5t142 -86.5
q65 0 106.5 42.5t60 109t18.5 141.5q0 120 -44.5 206z" />
    <glyph glyph-name="one" unicode="1" horiz-adv-x="308" 
d="M176 5.5q-8 8.5 -8 20.5v563l-90 -97q-8 -8 -19 -8q-10 0 -17.5 7.5t-7.5 18.5q0 9 7 18l125 131q9 11 25 11q14 0 24 -10t10 -24v-610q0 -11 -8.5 -20t-20.5 -9t-20 8.5z" />
    <glyph glyph-name="two" unicode="2" horiz-adv-x="579" 
d="M59.5 9.5q-9.5 9.5 -9.5 22.5q0 15 13 25q129 103 205 172.5t120 134t44 125.5q0 67 -45.5 101.5t-106.5 34.5q-53 0 -95.5 -18.5t-72.5 -51.5q-8 -8 -19 -8t-19 8t-8 19q0 12 9 19q36 40 89 62t116 22q52 0 100 -20.5t79 -63t31 -104.5q0 -69 -44 -138.5t-115.5 -136.5
t-188.5 -162h328q11 0 18.5 -7.5t7.5 -18.5q0 -10 -7.5 -18t-18.5 -8h-388q-13 0 -22.5 9.5z" />
    <glyph glyph-name="three" unicode="3" horiz-adv-x="544" 
d="M136.5 13q-54.5 25 -88.5 66q-8 8 -8 19t8 19t19 8t18 -9q31 -35 75 -55.5t98 -20.5q77 0 122.5 38t45.5 104q0 68 -49.5 101.5t-129.5 33.5h-39q-11 0 -19 8t-8 19q0 10 8 17.5t19 7.5h39q72 0 120.5 32t48.5 95q0 60 -46 94.5t-114 34.5q-50 0 -88.5 -17t-74.5 -53
q-7 -7 -18 -7q-10 0 -18 8t-8 18q0 9 8 19q38 39 89 61.5t113 22.5q59 0 108 -21t78 -60.5t29 -94.5q0 -69 -44.5 -108t-98.5 -48q33 -3 68.5 -22.5t60 -56t24.5 -87.5q0 -55 -27 -98.5t-78 -68t-120 -24.5q-68 0 -122.5 25z" />
    <glyph glyph-name="four" unicode="4" horiz-adv-x="541" 
d="M501.5 226.5q7.5 -7.5 7.5 -18.5q0 -10 -7.5 -18t-18.5 -8h-75v-156q0 -12 -8 -20.5t-20 -8.5t-20.5 9t-8.5 20v156h-283q-14 0 -25 10.5t-11 25.5q0 10 6 20l280 410q7 10 18 16t23 6q20 0 34.5 -14.5t14.5 -34.5v-387h75q11 0 18.5 -7.5zM94 234h257v376z" />
    <glyph glyph-name="five" unicode="5" horiz-adv-x="582" 
d="M81 97q0 12 8 20t19 8q13 0 19 -8q33 -39 74.5 -58t97.5 -19q47 0 85.5 21t60 58t21.5 82q0 75 -46.5 119t-119.5 44q-83 0 -147 -53q-11 -9 -23 -9q-15 0 -25 10.5t-10 24.5v299q0 31 31 31h332q11 0 18.5 -7.5t7.5 -18.5q0 -10 -7.5 -18t-18.5 -8h-306v-261
q27 27 69 44.5t90 17.5q57 0 106 -25t78 -73t29 -115q0 -65 -30 -113.5t-81.5 -75t-113.5 -26.5q-72 0 -123 23t-87 68q-8 6 -8 18z" />
    <glyph glyph-name="six" unicode="6" horiz-adv-x="584" 
d="M84.5 502q26.5 78 84 126.5t144.5 48.5q54 0 93.5 -17.5t70.5 -51.5q10 -7 10 -20q0 -11 -8 -18.5t-19 -7.5q-10 0 -18 6q-24 28 -55 42.5t-74 14.5q-68 0 -112.5 -42t-64.5 -108.5t-20 -142.5q0 -21 1 -31q25 41 79 76t116 35q95 0 155 -54.5t60 -156.5
q0 -56 -27 -104.5t-78 -78.5t-119 -30q-126 0 -185.5 98t-59.5 247q0 91 26.5 169zM423 320q-46 41 -121 41q-54 0 -103.5 -31.5t-78.5 -82.5q7 -82 51.5 -144.5t129.5 -62.5q54 0 92 24t57 61t19 75q0 79 -46 120z" />
    <glyph glyph-name="seven" unicode="7" horiz-adv-x="502" 
d="M144.5 5.5q-8.5 8.5 -8.5 19.5q0 6 4 14l262 576h-346q-10 0 -18 8t-8 18q0 11 8 18.5t18 7.5h389q11 0 19 -8t8 -19q0 -6 -3 -12l-277 -614q-3 -7 -10.5 -12t-16.5 -5q-12 0 -20.5 8.5z" />
    <glyph glyph-name="eight" unicode="8" 
d="M107 278.5q48 46.5 118 65.5q-66 18 -110.5 58.5t-44.5 102.5q0 56 31 95t80 58t105 19q55 0 104.5 -19t80.5 -58t31 -95q0 -62 -44.5 -102.5t-110.5 -58.5q70 -19 117.5 -65t47.5 -112q0 -53 -29.5 -93.5t-81 -63t-115.5 -22.5t-116 22t-81.5 63t-29.5 94q0 65 48 111.5
zM399 591q-45 34 -113 34t-113 -34t-45 -92q0 -60 51.5 -90t106.5 -41q55 11 106.5 41t51.5 90q0 58 -45 92zM424 249q-31 32 -71 49t-67 20q-28 -3 -67.5 -19.5t-70.5 -49t-31 -78.5q0 -39 23.5 -69t62 -46t83.5 -16q44 0 83 16t62.5 46t23.5 69q0 46 -31 78z" />
    <glyph glyph-name="nine" unicode="9" horiz-adv-x="584" 
d="M98 78q0 11 7.5 19t18.5 8q9 0 18 -7q24 -28 55 -42.5t74 -14.5q69 0 113.5 42t64 108.5t19.5 142.5v31q-26 -41 -80.5 -76.5t-115.5 -35.5q-95 0 -155 55t-60 157q0 56 27 104.5t78 78.5t119 30q126 0 185.5 -98t59.5 -247q0 -91 -26.5 -169t-84 -126.5t-144.5 -48.5
q-54 0 -93 18t-71 51q-9 7 -9 20zM412.5 563.5q-44.5 62.5 -129.5 62.5q-54 0 -92 -24t-57 -61t-19 -75q0 -79 46 -120t121 -41q54 0 103.5 31.5t78.5 82.5q-7 82 -51.5 144.5z" />
    <glyph glyph-name="colon" unicode=":" horiz-adv-x="219" 
d="M78 477q13 13 31 13t31.5 -13t13.5 -31q0 -17 -13.5 -30t-31.5 -13t-31 13t-13 30q0 18 13 31zM78 65q13 13 31 13t31.5 -13t13.5 -30q0 -18 -13.5 -31.5t-31.5 -13.5t-31 13.5t-13 31.5q0 17 13 30z" />
    <glyph glyph-name="semicolon" unicode=";" horiz-adv-x="219" 
d="M78 416q-13 13 -13 30q0 18 13 31t31 13t31.5 -13t13.5 -31q0 -17 -13.5 -30t-31.5 -13t-31 13zM85 -119q-8 0 -13 5.5t-5 13.5t5 13q20 19 31.5 40.5t12.5 40.5q-3 -1 -10 -1q-18 0 -29.5 12t-11.5 30q0 17 12.5 30t30.5 13q21 0 36 -17t15 -47q0 -36 -17 -70t-44 -59
q-4 -4 -13 -4z" />
    <glyph glyph-name="less" unicode="&#x3c;" horiz-adv-x="496" 
d="M30.5 320q-4.5 7 -4.5 15q0 16 16 25l396 205q9 3 10 3q10 0 16.5 -6.5t6.5 -16.5q0 -6 -4 -11.5t-9 -7.5l-377 -192l377 -190q5 -2 9 -7.5t4 -12.5q0 -9 -6.5 -15.5t-15.5 -6.5q-6 0 -11 3l-396 205q-7 3 -11.5 10z" />
    <glyph glyph-name="equal" unicode="=" horiz-adv-x="496" 
d="M32.5 417.5q-6.5 6.5 -6.5 14.5t6.5 14.5t14.5 6.5h403q8 0 14.5 -6.5t6.5 -14.5t-6.5 -14.5t-14.5 -6.5h-403q-8 0 -14.5 6.5zM32.5 222q-6.5 6 -6.5 14t6.5 14.5t14.5 6.5h403q8 0 14.5 -6.5t6.5 -14.5t-6.5 -14t-14.5 -6h-403q-8 0 -14.5 6z" />
    <glyph glyph-name="greater" unicode="&#x3e;" horiz-adv-x="496" 
d="M48 102q-9 0 -15.5 6.5t-6.5 15.5q0 7 3.5 12.5t8.5 7.5l377 190l-376 192q-5 2 -9 7.5t-4 11.5q0 10 6.5 16.5t15.5 6.5q4 0 10 -3l397 -205q16 -9 16 -25q0 -8 -4.5 -15t-11.5 -10l-397 -205q-3 -3 -10 -3z" />
    <glyph glyph-name="question" unicode="?" horiz-adv-x="464" 
d="M198.5 328.5q25.5 28.5 74.5 62.5q48 33 71.5 59t23.5 67q0 46 -35.5 77t-98.5 31q-55 0 -93 -18t-67 -54q-8 -8 -18 -8q-11 0 -19 7.5t-8 18.5q0 12 8 18q75 88 200 88q58 0 101.5 -20.5t66.5 -56t23 -77.5q0 -39 -16 -68.5t-39.5 -50t-60.5 -45.5q-45 -30 -66.5 -52.5
t-21.5 -54.5q0 -7 4.5 -16.5t12.5 -18.5q4 -6 4 -11q0 -10 -7.5 -17.5t-17.5 -7.5q-13 0 -20 10q-27 28 -27 64q0 45 25.5 73.5zM192 65q13 13 31 13t31 -13t13 -30q0 -18 -13 -31.5t-31 -13.5t-31 13.5t-13 31.5q0 17 13 30z" />
    <glyph glyph-name="at" unicode="@" horiz-adv-x="783" 
d="M595.5 595q71.5 -43 111.5 -116.5t40 -162.5q0 -72 -23 -124.5t-60 -79.5t-79 -27q-39 0 -63 25t-25 60l-1 6q-28 -39 -72 -65t-92 -26q-69 0 -111 43.5t-42 116.5q0 69 34.5 127.5t90 92.5t114.5 34q47 0 80.5 -23t48.5 -58l10 48q2 8 8.5 14t15.5 6q11 0 18.5 -9.5
t5.5 -20.5l-54 -256q-2 -12 -2 -19q0 -25 14.5 -40t35.5 -15q23 0 50 18.5t46.5 61.5t19.5 111q0 82 -36 148t-101.5 103.5t-148.5 37.5q-95 0 -178.5 -50.5t-133.5 -134t-50 -176.5q0 -80 37.5 -144.5t103.5 -102t148 -37.5q93 0 176 50q5 3 8 3q7 0 11 -4.5t4 -11.5
q0 -8 -7 -12q-47 -29 -98 -42.5t-98 -13.5q-89 0 -161.5 41.5t-114 113.5t-41.5 159q0 106 55.5 196.5t147 144t194.5 53.5q92 0 163.5 -43zM538 375q-11 32 -40 57.5t-74 25.5q-52 0 -96.5 -30t-70.5 -78.5t-26 -101.5q0 -54 29.5 -88t81.5 -34q51 0 93 29.5t71 71.5z" />
    <glyph glyph-name="A" unicode="A" horiz-adv-x="647" 
d="M619 27q0 -12 -8.5 -21t-21.5 -9q-10 0 -17.5 5.5t-10.5 13.5l-59 148h-357l-59 -148q-3 -8 -11 -13.5t-17 -5.5q-13 0 -21.5 9t-8.5 21q0 5 3 12l246 600q5 14 18 22.5t28 8.5t28 -8.5t19 -22.5l246 -600q3 -9 3 -12zM166 216h315l-158 395z" />
    <glyph glyph-name="B" unicode="B" horiz-adv-x="614" 
d="M91 8.5q-8 8.5 -8 22.5v605q0 31 31 31h243q84 0 134 -46t50 -124q0 -60 -34.5 -101.5t-82.5 -51.5q35 -5 65 -29.5t47.5 -60t17.5 -74.5q0 -83 -51 -131.5t-140 -48.5h-249q-15 0 -23 8.5zM350 368q62 0 96.5 34.5t34.5 88.5q0 53 -34.5 88.5t-96.5 35.5h-210v-247h210z
M354 52q66 0 103 35.5t37 96.5q0 55 -37 93.5t-103 38.5h-214v-264h214z" />
    <glyph glyph-name="C" unicode="C" horiz-adv-x="669" 
d="M224 31.5q-77 43.5 -121.5 122.5t-44.5 179t44.5 179t121.5 122.5t170 43.5q136 0 226 -95q7 -7 7 -19t-8 -20t-20 -8q-13 0 -21 9q-34 38 -82 59.5t-102 21.5q-77 0 -140 -37t-99.5 -104t-36.5 -152q0 -84 36.5 -151t99.5 -104.5t140 -37.5q54 0 102.5 21.5t82.5 60.5
q8 9 20 9t20.5 -8.5t8.5 -19.5q0 -13 -8 -19q-91 -96 -226 -96q-93 0 -170 43.5z" />
    <glyph glyph-name="D" unicode="D" horiz-adv-x="692" 
d="M91 8.5q-8 8.5 -8 22.5v605q0 31 31 31h182q101 0 177.5 -44.5t118 -121t41.5 -168.5q0 -93 -41.5 -169t-118 -120t-177.5 -44h-182q-15 0 -23 8.5zM296 52q86 0 148.5 37t95.5 101t33 143t-33 143t-95.5 101.5t-148.5 37.5h-156v-563h156z" />
    <glyph glyph-name="E" unicode="E" horiz-adv-x="564" 
d="M91 8.5q-8 8.5 -8 22.5v605q0 31 31 31h369q11 0 18.5 -7.5t7.5 -18.5q0 -10 -7.5 -18t-18.5 -8h-343v-247h336q11 0 18.5 -7.5t7.5 -18.5q0 -10 -7.5 -18t-18.5 -8h-336v-264h343q11 0 18.5 -7.5t7.5 -18.5q0 -10 -7.5 -18t-18.5 -8h-369q-15 0 -23 8.5z" />
    <glyph glyph-name="F" unicode="F" horiz-adv-x="542" 
d="M91.5 6q-8.5 9 -8.5 20v610q0 31 31 31h369q11 0 18.5 -7.5t7.5 -18.5q0 -10 -7.5 -18t-18.5 -8h-343v-247h336q11 0 18.5 -7.5t7.5 -18.5q0 -10 -7.5 -18t-18.5 -8h-336v-290q0 -12 -8 -20.5t-20 -8.5t-20.5 9z" />
    <glyph glyph-name="G" unicode="G" horiz-adv-x="711" 
d="M649 300v-179q0 -25 -16 -38q-45 -45 -106 -70.5t-131 -25.5q-93 0 -170.5 44t-122.5 122.5t-45 179.5t45 179.5t122.5 122t170.5 43.5q138 0 233 -93q7 -6 7 -18t-7.5 -19.5t-19.5 -7.5q-11 0 -18 7q-37 37 -88 58t-107 21q-78 0 -141.5 -37t-100 -104t-36.5 -152
q0 -84 36.5 -151.5t100 -105t141.5 -37.5q61 0 112 24t84 57v160h-230q-11 0 -18.5 7.5t-7.5 18.5q0 10 7.5 17.5t18.5 7.5h256q31 0 31 -31z" />
    <glyph glyph-name="H" unicode="H" horiz-adv-x="703" 
d="M571.5 6q-8.5 9 -8.5 20v291h-423v-291q0 -12 -8 -20.5t-20 -8.5t-20.5 9t-8.5 20v615q0 12 8.5 20.5t20.5 8.5t20 -8.5t8 -20.5v-272h423v272q0 12 8.5 20.5t20.5 8.5t20.5 -8.5t8.5 -20.5v-615q0 -11 -8.5 -20t-20.5 -9t-20.5 9z" />
    <glyph glyph-name="I" unicode="I" horiz-adv-x="223" 
d="M91.5 6q-8.5 9 -8.5 20v615q0 12 8.5 20.5t20.5 8.5t20 -8.5t8 -20.5v-615q0 -12 -8 -20.5t-20 -8.5t-20.5 9z" />
    <glyph glyph-name="J" unicode="J" horiz-adv-x="470" 
d="M20 73q0 12 8.5 20.5t19.5 8.5t19 -8q49 -54 115 -54q67 0 107 42.5t40 110.5v448q0 12 8.5 20.5t20.5 8.5t20.5 -8.5t8.5 -20.5v-448q0 -100 -57 -152.5t-145 -52.5q-48 0 -86 16t-69 49q-10 8 -10 20z" />
    <glyph glyph-name="K" unicode="K" horiz-adv-x="586" 
d="M541 25q0 -11 -8 -19.5t-19 -8.5q-13 0 -21 8l-279 307l-74 -80v-206q0 -12 -8 -20.5t-20 -8.5t-20.5 9t-8.5 20v615q0 12 8.5 20.5t20.5 8.5t20 -8.5t8 -20.5v-340l326 360q7 9 20 9q11 0 19.5 -8t8.5 -19t-8 -19l-255 -276l282 -304q8 -10 8 -19z" />
    <glyph glyph-name="L" unicode="L" horiz-adv-x="504" 
d="M91 8.5q-8 8.5 -8 22.5v610q0 12 8.5 20.5t20.5 8.5t20 -8.5t8 -20.5v-589h300q11 0 18.5 -7.5t7.5 -18.5q0 -10 -7.5 -18t-18.5 -8h-326q-15 0 -23 8.5z" />
    <glyph glyph-name="M" unicode="M" horiz-adv-x="790" 
d="M657.5 6q-8.5 9 -8.5 20v566l-237 -581q-6 -14 -17 -14q-12 0 -17 14l-238 581v-566q0 -12 -8 -20.5t-20 -8.5t-20.5 9t-8.5 20v594q0 20 14.5 35t35.5 15q16 0 29 -8.5t18 -22.5l215 -529l215 529q5 14 18 22.5t29 8.5q21 0 35.5 -15t14.5 -35v-594q0 -11 -8.5 -20
t-20.5 -9t-20.5 9z" />
    <glyph glyph-name="N" unicode="N" horiz-adv-x="699" 
d="M551 12l-411 564v-550q0 -12 -8 -20.5t-20 -8.5t-20.5 9t-8.5 20v606q0 16 10.5 27t26.5 11q20 0 31 -16l408 -555v542q0 12 8 20.5t20 8.5t20.5 -8.5t8.5 -20.5v-608q0 -14 -10.5 -25t-24.5 -11q-20 0 -30 15z" />
    <glyph glyph-name="O" unicode="O" horiz-adv-x="764" 
d="M98.5 509q40.5 79 114 124t169.5 45q95 0 169 -45t114.5 -124t40.5 -176t-40.5 -176t-114.5 -124t-169 -45q-96 0 -169.5 45t-114 124t-40.5 176t40.5 176zM613.5 484.5q-32.5 66.5 -92.5 104t-139 37.5q-80 0 -139.5 -37.5t-92 -104t-32.5 -151.5q0 -84 32.5 -150.5
t92.5 -104.5t139 -38q78 0 138 38t93 104.5t33 150.5q0 85 -32.5 151.5z" />
    <glyph glyph-name="P" unicode="P" 
d="M91.5 6q-8.5 9 -8.5 20v610q0 31 31 31h219q62 0 107.5 -26.5t69.5 -71t24 -97.5t-24 -97.5t-70 -71t-107 -26.5h-193v-251q0 -12 -8 -20.5t-20 -8.5t-20.5 9zM433.5 575q-40.5 40 -106.5 40h-187v-286h187q66 0 106.5 40t40.5 103t-40.5 103z" />
    <glyph glyph-name="Q" unicode="Q" horiz-adv-x="764" 
d="M665 27q7 -9 7 -18q0 -11 -8 -19t-19 -8q-13 0 -19 8l-55 57q-79 -59 -189 -59q-96 0 -169.5 45t-114 124t-40.5 176t40.5 176t114 124t169.5 45q95 0 169 -45t114.5 -124t40.5 -176q0 -75 -24.5 -139.5t-69.5 -111.5zM533 86l-87 90q-6 8 -6 18q0 11 7.5 19t18.5 8
q12 0 20 -9l87 -90q35 40 54 94t19 117q0 85 -32.5 151.5t-92.5 104t-139 37.5q-80 0 -139.5 -37.5t-92 -104t-32.5 -151.5q0 -84 32.5 -150.5t92.5 -104.5t139 -38q86 0 151 46z" />
    <glyph glyph-name="R" unicode="R" horiz-adv-x="594" 
d="M530 43q5 -7 5 -18t-7.5 -19.5t-19.5 -8.5q-16 0 -25 12l-186 267h-157v-250q0 -12 -8 -20.5t-20 -8.5t-20.5 9t-8.5 20v610q0 31 31 31h218q58 0 104 -23.5t72.5 -67.5t26.5 -104q0 -84 -50 -134.5t-125 -56.5zM140 328h187q66 0 107 40.5t41 103.5t-41 103t-107 40
h-187v-287z" />
    <glyph glyph-name="S" unicode="S" horiz-adv-x="581" 
d="M54 97q0 12 8.5 20.5t19.5 8.5t20 -7q81 -79 189 -79q93 0 134.5 40.5t41.5 92.5q0 44 -24.5 71.5t-61.5 42.5t-97 31q-72 20 -114.5 37.5t-72.5 52.5t-30 92q0 53 29.5 93.5t80 62.5t112.5 22q123 0 206 -77q11 -7 11 -21q0 -11 -8.5 -19.5t-20.5 -8.5t-18 7
q-67 67 -173 67q-69 0 -114 -34.5t-45 -88.5q0 -37 23 -60.5t57.5 -37t93.5 -28.5q73 -21 118 -40.5t76.5 -58t31.5 -101.5q0 -47 -23 -90t-76 -71t-138 -28q-70 0 -127.5 23.5t-99.5 64.5q-9 8 -9 21z" />
    <glyph glyph-name="T" unicode="T" horiz-adv-x="564" 
d="M261.5 6q-8.5 9 -8.5 20v589h-195q-10 0 -18 8t-8 18q0 11 8 18.5t18 7.5h449q11 0 18.5 -7.5t7.5 -18.5q0 -10 -7.5 -18t-18.5 -8h-196v-589q0 -11 -8.5 -20t-20.5 -9t-20.5 9z" />
    <glyph glyph-name="U" unicode="U" horiz-adv-x="686" 
d="M83 641q0 12 8.5 20.5t20.5 8.5t20.5 -8.5t8.5 -20.5v-384q0 -102 52.5 -159.5t149.5 -57.5q98 0 150 57t52 160v384q0 12 8.5 20.5t20.5 8.5q13 0 21 -8.5t8 -20.5v-385q0 -126 -66.5 -197t-193.5 -71q-126 0 -193 71.5t-67 196.5v385z" />
    <glyph glyph-name="V" unicode="V" horiz-adv-x="647" 
d="M295 6q-13 9 -18 23l-246 598q-3 9 -3 12q0 13 9 22t22 9q10 0 17.5 -5.5t11.5 -13.5l235 -587l236 587q3 8 11 13.5t18 5.5q13 0 21.5 -9t8.5 -21q0 -7 -2 -13l-246 -598q-5 -14 -18 -23t-29 -9q-15 0 -28 9z" />
    <glyph glyph-name="W" unicode="W" horiz-adv-x="867" 
d="M601 5.5q-11 8.5 -15 21.5l-152 546l-153 -546q-3 -13 -14 -21.5t-25 -8.5t-25.5 8.5t-14.5 21.5l-172 602q-1 5 -1 11q0 12 9 21t21 9q10 0 18.5 -6.5t10.5 -16.5l156 -567l158 566q3 11 11.5 17.5t20.5 6.5q11 0 20 -7t11 -17l158 -566l156 567q2 10 10.5 16.5
t18.5 6.5q13 0 22 -9t9 -22l-2 -10l-171 -602q-4 -14 -15 -22t-25 -8t-25 8.5z" />
    <glyph glyph-name="X" unicode="X" horiz-adv-x="645" 
d="M609 26q0 -12 -8 -20.5t-20 -8.5q-14 0 -23 9l-235 294l-236 -294q-9 -9 -23 -9q-12 0 -20 8.5t-8 20.5q0 9 7 18l246 298l-232 281q-6 10 -6 18q0 12 8.5 20.5t20.5 8.5q14 0 22 -11l221 -274l220 274q8 11 22 11q12 0 20.5 -8.5t8.5 -20.5q0 -6 -7 -18l-231 -280
l246 -299q7 -9 7 -18z" />
    <glyph glyph-name="Y" unicode="Y" horiz-adv-x="618" 
d="M575 626l-237 -340v-260q0 -11 -8.5 -20t-20.5 -9t-20.5 9t-8.5 20v259l-237 340q-5 7 -5 17q0 11 8.5 19.5t20.5 8.5q17 0 24 -12l218 -321l218 321q8 12 24 12q12 0 20.5 -8.5t8.5 -19.5t-5 -16z" />
    <glyph glyph-name="Z" unicode="Z" horiz-adv-x="581" 
d="M57.5 10q-10.5 10 -10.5 25q0 10 7 19l398 561h-379q-10 0 -18 8t-8 18q0 11 8 18.5t18 7.5h419q14 0 24.5 -10t10.5 -24q0 -11 -7 -20l-398 -561h386q11 0 18.5 -7.5t7.5 -18.5q0 -10 -7.5 -18t-18.5 -8h-426q-14 0 -24.5 10z" />
    <glyph glyph-name="bracketleft" unicode="[" horiz-adv-x="228" 
d="M44.5 -183q-7.5 7 -7.5 18v817q0 11 7.5 18.5t18.5 7.5h130q9 0 15 -6.5t6 -14.5q0 -9 -6 -15.5t-15 -6.5h-112v-782h112q9 0 15 -6.5t6 -15.5q0 -8 -6 -14.5t-15 -6.5h-130q-11 0 -18.5 7z" />
    <glyph glyph-name="backslash" unicode="\" horiz-adv-x="282" 
d="M241 -19q-6 4 -8 10l-224 668l-2 9q0 9 6 15.5t16 6.5q6 0 12 -4t8 -10l224 -668q2 -6 2 -10q0 -9 -6 -15t-16 -6q-6 0 -12 4z" />
    <glyph glyph-name="bracketright" unicode="]" horiz-adv-x="228" 
d="M19.5 -183.5q-6.5 6.5 -6.5 14.5q0 9 6.5 15.5t15.5 6.5h112v782h-112q-9 0 -15.5 6.5t-6.5 15.5q0 8 6.5 14.5t15.5 6.5h130q11 0 18.5 -7.5t7.5 -18.5v-817q0 -11 -7.5 -18t-18.5 -7h-131q-8 0 -14.5 6.5z" />
    <glyph glyph-name="asciicircum" unicode="^" horiz-adv-x="428" 
d="M357 342l-143 284l-143 -284q-5 -12 -19 -12q-9 0 -15 6.5t-6 14.5q0 4 2 10l153 292q4 8 11.5 12.5t16.5 4.5q10 0 17.5 -4.5t10.5 -12.5l153 -292q2 -6 2 -10q0 -8 -6 -14.5t-15 -6.5q-14 0 -19 12z" />
    <glyph glyph-name="underscore" unicode="_" horiz-adv-x="564" 
d="M0.5 -76.5q-6.5 6.5 -6.5 15.5q0 8 6.5 14.5t14.5 6.5h534q8 0 14.5 -6.5t6.5 -14.5q0 -9 -6.5 -15.5t-14.5 -6.5h-534q-8 0 -14.5 6.5z" />
    <glyph glyph-name="grave" unicode="`" horiz-adv-x="216" 
d="M38 668q-7 5 -7 15q0 8 6 14t14 6q7 0 13 -6l127 -118q5 -5 5 -11t-4.5 -10.5t-10.5 -4.5t-10 4z" />
    <glyph glyph-name="a" unicode="a" horiz-adv-x="521" 
d="M391 456q49 -39 49 -116v-317q0 -10 -7.5 -18t-18.5 -8q-10 0 -18 8t-8 18v36q-61 -71 -164 -71q-43 0 -82 19t-63 55.5t-24 86.5t24 86.5t63 55t82 18.5q102 0 164 -69v98q0 52 -37 81.5t-93 29.5q-40 0 -73 -13.5t-63 -43.5q-7 -5 -15 -5q-10 0 -16.5 6.5t-6.5 16.5
q0 11 8 17q36 35 77 51.5t95 16.5q78 0 127 -39zM325 46q38 17 63 49v106q-25 33 -63.5 50t-82.5 17q-59 0 -95.5 -34t-36.5 -86t36.5 -85.5t95.5 -33.5q45 0 83 17z" />
    <glyph glyph-name="b" unicode="b" 
d="M414 463.5q49 -31.5 76 -89t27 -133.5t-27 -133.5t-76 -88.5t-113 -31q-51 0 -95.5 25t-72.5 64v-54q0 -10 -7.5 -18t-18.5 -8q-10 0 -18 8t-8 18v621q0 11 8 18.5t18 7.5q11 0 18.5 -7.5t7.5 -18.5v-239q30 43 73.5 66.5t94.5 23.5q64 0 113 -31.5zM416 93q45 58 45 148
q0 91 -45 149t-124 58q-48 0 -92.5 -26t-66.5 -62v-239q22 -36 66 -61t93 -25q79 0 124 58z" />
    <glyph glyph-name="c" unicode="c" horiz-adv-x="494" 
d="M82.5 370q29.5 58 83 91.5t122.5 33.5q52 0 88.5 -16t67.5 -49q7 -9 7 -17q0 -10 -6.5 -17t-17.5 -7q-10 0 -16 7q-26 28 -55 40t-65 12q-55 0 -96.5 -27t-63.5 -74t-22 -105t22 -105.5t63.5 -74.5t96.5 -27q36 0 65 12.5t54 40.5q7 7 17 7q11 0 17.5 -6.5t6.5 -17.5
t-7 -18q-31 -32 -68 -48.5t-88 -16.5q-69 0 -122.5 33.5t-83 92t-29.5 128.5t29.5 128z" />
    <glyph glyph-name="d" unicode="d" 
d="M482.5 662.5q7.5 -7.5 7.5 -18.5v-621q0 -10 -7.5 -18t-18.5 -8t-19 8t-8 18v53q-27 -39 -72 -63.5t-96 -24.5q-64 0 -113 31t-76 88.5t-27 133.5t27 133.5t76.5 89t112.5 31.5q50 0 94 -23.5t74 -65.5v238q0 10 8 18t19 8t18.5 -7.5zM371 60q44 25 66 61v239
q-22 37 -66 62.5t-93 25.5q-78 0 -123.5 -58.5t-45.5 -148.5t45.5 -148t123.5 -58q49 0 93 25z" />
    <glyph glyph-name="e" unicode="e" horiz-adv-x="567" 
d="M83.5 369q30.5 58 83.5 92t119 34q71 0 122.5 -33.5t78.5 -89t27 -118.5q0 -14 -8 -21.5t-23 -7.5h-373q3 -53 26.5 -97t65.5 -69.5t97 -25.5q84 0 145 55q4 4 13 4t15 -6t6 -16q0 -9 -8 -17q-37 -32 -79.5 -48.5t-95.5 -16.5q-70 0 -125 32.5t-86 90t-31 131.5
q0 69 30.5 127zM192 422.5q-39 -27.5 -59.5 -69.5t-22.5 -87h351q-1 44 -20.5 86.5t-59 70t-96.5 27.5q-54 0 -93 -27.5z" />
    <glyph glyph-name="f" unicode="f" horiz-adv-x="265" 
d="M286.5 662q4.5 -6 4.5 -13q0 -10 -6 -16t-16 -6q-5 0 -15.5 2.5t-19.5 2.5q-41 0 -62.5 -27t-21.5 -78v-44h78q9 0 16.5 -6.5t7.5 -16.5q0 -9 -7.5 -16t-16.5 -7h-78v-414q0 -10 -7.5 -18t-18.5 -8q-10 0 -18 8t-8 18v414h-60q-9 0 -16 6.5t-7 16.5t7 16.5t16 6.5h60v44
q0 71 35 110.5t96 39.5q25 0 45 -7q8 -2 12.5 -8z" />
    <glyph glyph-name="g" unicode="g" horiz-adv-x="570" 
d="M482.5 478.5q7.5 -7.5 7.5 -18.5v-455q0 -104 -60.5 -152.5t-157.5 -48.5q-58 0 -97.5 12.5t-76.5 46.5q-9 6 -9 19q0 10 7 17t17 7q9 0 15 -6q29 -27 63 -39t81 -12q72 0 118.5 38.5t46.5 116.5v75q-29 -39 -73.5 -64t-94.5 -25q-64 0 -113 31t-76 88t-27 133
q0 75 27 132.5t76 89t113 31.5q50 0 94 -23.5t74 -65.5v54q0 11 8 18.5t19 7.5t18.5 -7.5zM371 62.5q44 25.5 66 62.5v235q-22 37 -66 62.5t-93 25.5q-78 0 -123.5 -58t-45.5 -148t45.5 -147.5t123.5 -57.5q49 0 93 25.5z" />
    <glyph glyph-name="h" unicode="h" horiz-adv-x="540" 
d="M415 5q-8 8 -8 18v306q0 66 -30 92.5t-87 26.5q-45 0 -89 -24t-68 -59v-342q0 -10 -7.5 -18t-18.5 -8q-10 0 -18 8t-8 18v621q0 11 8 18.5t18 7.5q11 0 18.5 -7.5t7.5 -18.5v-234q29 34 77 59.5t97 25.5q75 0 113.5 -37.5t38.5 -117.5v-317q0 -10 -7.5 -18t-18.5 -8
q-10 0 -18 8z" />
    <glyph glyph-name="i" unicode="i" horiz-adv-x="214" 
d="M79 595q-12 12 -12 28t12 28t28 12q17 0 28.5 -11.5t11.5 -28.5q0 -16 -11.5 -28t-28.5 -12q-16 0 -28 12zM89 5q-8 8 -8 18v437q0 11 8 18.5t18 7.5q11 0 18.5 -7.5t7.5 -18.5v-437q0 -10 -7.5 -18t-18.5 -8q-10 0 -18 8z" />
    <glyph glyph-name="j" unicode="j" horiz-adv-x="214" 
d="M79 595q-12 12 -12 28t12 28t28 12q17 0 28.5 -11.5t11.5 -28.5q0 -16 -11.5 -28t-28.5 -12q-16 0 -28 12zM-28 -192q-9 2 -14.5 8t-5.5 15t6 16t15 7q3 0 10 -2t18 -2q37 0 58.5 21.5t21.5 66.5v522q0 11 8 18.5t18 7.5q11 0 18.5 -7.5t7.5 -18.5v-522q0 -66 -33.5 -100
t-94.5 -34q-18 0 -33 4z" />
    <glyph glyph-name="k" unicode="k" horiz-adv-x="505" 
d="M464 24q0 -11 -7.5 -19t-18.5 -8q-13 0 -21 9l-194 224l-90 -85v-122q0 -10 -7.5 -18t-18.5 -8q-10 0 -18 8t-8 18v621q0 11 8 18.5t18 7.5q11 0 18.5 -7.5t7.5 -18.5v-436l287 272q8 6 17 6q10 0 17 -7.5t7 -17.5t-8 -18l-190 -179l195 -222q6 -7 6 -18z" />
    <glyph glyph-name="l" unicode="l" horiz-adv-x="214" 
d="M89 5q-8 8 -8 18v621q0 11 8 18.5t18 7.5q11 0 18.5 -7.5t7.5 -18.5v-621q0 -10 -7.5 -18t-18.5 -8q-10 0 -18 8z" />
    <glyph glyph-name="m" unicode="m" horiz-adv-x="789" 
d="M708 348v-325q0 -10 -7.5 -18t-18.5 -8q-10 0 -18 8t-8 18v315q0 110 -97 110q-38 0 -77.5 -24t-60.5 -58v-343q0 -11 -8 -18.5t-19 -7.5q-10 0 -18 8t-8 18v315q0 110 -97 110q-37 0 -76 -24.5t-62 -58.5v-342q0 -10 -7.5 -18t-18.5 -8q-10 0 -18 8t-8 18v437
q0 11 8 18.5t18 7.5q11 0 18.5 -7.5t7.5 -18.5v-50q10 17 34.5 37t56.5 34t65 14q53 0 85 -26t42 -65q22 36 67 63.5t93 27.5q132 0 132 -147z" />
    <glyph glyph-name="n" unicode="n" horiz-adv-x="540" 
d="M459 338v-315q0 -10 -7.5 -18t-18.5 -8q-10 0 -18 8t-8 18v304q0 66 -30 93.5t-87 27.5q-45 0 -89 -24t-68 -59v-342q0 -10 -7.5 -18t-18.5 -8q-10 0 -18 8t-8 18v437q0 11 8 18.5t18 7.5q11 0 18.5 -7.5t7.5 -18.5v-50q29 34 77 59.5t97 25.5q152 0 152 -157z" />
    <glyph glyph-name="o" unicode="o" 
d="M163.5 21.5q-52.5 33.5 -81.5 91.5t-29 129t29 128.5t81.5 91t121.5 33.5q70 0 123 -33.5t81.5 -91t28.5 -128.5t-28.5 -129t-81.5 -91.5t-123 -33.5q-69 0 -121.5 33.5zM380 63.5q40 28.5 61 76t21 102.5t-21 102t-61 75.5t-95 28.5q-54 0 -94 -28.5t-61 -75.5t-21 -102
t21 -102.5t61 -76t94 -28.5q55 0 95 28.5z" />
    <glyph glyph-name="p" unicode="p" horiz-adv-x="570" 
d="M414 464q49 -31 76 -88.5t27 -133.5t-27 -133.5t-76 -89t-113 -31.5q-51 0 -94.5 24t-73.5 67v-240q0 -11 -7.5 -18.5t-18.5 -7.5q-10 0 -18 7.5t-8 18.5v621q0 11 8 18.5t18 7.5q11 0 18.5 -7.5t7.5 -18.5v-54q27 40 71.5 64.5t96.5 24.5q64 0 113 -31zM416 93
q45 58 45 149q0 90 -45 148t-124 58q-49 0 -93 -25t-66 -61v-239q22 -36 66.5 -62t92.5 -26q79 0 124 58z" />
    <glyph glyph-name="q" unicode="q" horiz-adv-x="570" 
d="M482 478.5q8 -7.5 8 -18.5v-621q0 -11 -8 -18.5t-19 -7.5q-10 0 -18 7.5t-8 18.5v238q-30 -42 -74 -65.5t-94 -23.5q-64 0 -113 31.5t-76 89t-27 133.5t27 133.5t76 88.5t113 31q52 0 96.5 -24.5t71.5 -64.5v54q0 11 8 18.5t18 7.5q11 0 19 -7.5zM370.5 61
q44.5 26 66.5 62v239q-22 36 -66 61t-93 25q-78 0 -123.5 -58t-45.5 -148t45.5 -148.5t123.5 -58.5q48 0 92.5 26z" />
    <glyph glyph-name="r" unicode="r" horiz-adv-x="317" 
d="M293 483.5q7 -7.5 7 -19.5q0 -10 -8.5 -17.5t-22.5 -8.5q-38 -1 -78 -27t-58 -59v-329q0 -10 -7.5 -18t-18.5 -8q-10 0 -18 8t-8 18v437q0 11 8 18.5t18 7.5q11 0 18.5 -7.5t7.5 -18.5v-61q54 72 118 88q13 4 23 4q12 0 19 -7.5z" />
    <glyph glyph-name="s" unicode="s" horiz-adv-x="459" 
d="M45 68q0 11 7.5 18t17.5 7q9 0 15 -6q27 -25 63 -40t78 -15q60 0 94.5 26.5t34.5 69.5q0 29 -18 47.5t-45 28.5t-72 22q-56 14 -89 26.5t-57 38.5t-24 70q0 57 46.5 95.5t125.5 38.5q98 0 159 -58q8 -8 8 -18q0 -9 -6.5 -16t-16.5 -7q-8 0 -14 6q-24 23 -57 36t-73 13
q-55 0 -88 -24.5t-33 -62.5q0 -26 17 -42t42 -25t70 -20q57 -14 91.5 -28t59.5 -42.5t25 -76.5q0 -62 -47 -102t-134 -40q-53 0 -94.5 14.5t-76.5 47.5q-9 7 -9 18z" />
    <glyph glyph-name="t" unicode="t" horiz-adv-x="275" 
d="M258.5 43.5q6.5 -6.5 6.5 -16.5q0 -13 -12 -20q-27 -19 -67 -19q-47 0 -71 27.5t-24 77.5v344h-59q-10 0 -17 6.5t-7 16.5t7 16.5t17 6.5h59v109q0 11 8 18.5t19 7.5t18.5 -7.5t7.5 -18.5v-109h77q10 0 17 -6.5t7 -16.5t-7 -16.5t-17 -6.5h-77v-336q0 -30 12.5 -48
t37.5 -18q18 0 30.5 7.5t17.5 7.5q10 0 16.5 -6.5z" />
    <glyph glyph-name="u" unicode="u" horiz-adv-x="540" 
d="M451.5 478.5q7.5 -7.5 7.5 -18.5v-437q0 -10 -7.5 -18t-18.5 -8q-10 0 -18 8t-8 18v48q-32 -36 -78 -59.5t-96 -23.5q-76 0 -114 37.5t-38 117.5v317q0 11 8 18.5t18 7.5q11 0 18.5 -7.5t7.5 -18.5v-305q0 -67 30 -93.5t87 -26.5q45 0 88.5 23t68.5 57v345q0 11 8 18.5
t18 7.5q11 0 18.5 -7.5z" />
    <glyph glyph-name="v" unicode="v" horiz-adv-x="481" 
d="M453.5 478q7.5 -8 7.5 -19q0 -7 -3 -13l-179 -423q-5 -11 -15 -18.5t-23 -7.5t-23.5 7.5t-15.5 18.5l-180 424q-2 6 -2 12q0 11 7.5 19t18.5 8q8 0 15 -4.5t10 -12.5l170 -410l169 410q2 7 9 12t15 5q12 0 19.5 -8z" />
    <glyph glyph-name="w" unicode="w" horiz-adv-x="719" 
d="M500.5 3.5q-8.5 6.5 -11.5 16.5l-129 393l-130 -393q-3 -10 -11.5 -16.5t-19.5 -6.5t-19.5 6t-11.5 17l-140 430q-2 8 -2 10q0 11 7.5 18.5t18.5 7.5q9 0 16 -5t10 -14l123 -394l131 393q2 9 10 14.5t18 5.5t17.5 -5.5t9.5 -14.5l131 -393l124 394q2 9 9 14t16 5
q11 0 18.5 -8t7.5 -19l-2 -11l-140 -428q-3 -11 -11.5 -17t-19.5 -6t-19.5 6.5z" />
    <glyph glyph-name="x" unicode="x" horiz-adv-x="479" 
d="M446 22q0 -10 -7 -17.5t-18 -7.5q-12 0 -20 9l-162 207l-161 -206q-8 -10 -19 -10t-18 7.5t-7 17.5q0 9 5 16l171 212l-160 195q-6 6 -6 15q0 11 7.5 18.5t17.5 7.5q12 0 19 -9l152 -191l151 191q8 9 19 9q10 0 17.5 -7.5t7.5 -18.5q0 -9 -6 -15l-160 -195l171 -212
q6 -6 6 -16z" />
    <glyph glyph-name="y" unicode="y" horiz-adv-x="481" 
d="M57.5 -153q7.5 7 17.5 7q3 0 10 -1.5t15 -1.5q25 0 42 13t31 46l38 86l-189 451q-2 5 -2 12q0 11 7.5 19t18.5 8q8 0 15 -4.5t10 -12.5l170 -408l169 408q2 7 9 12t15 5q12 0 19.5 -8t7.5 -19q0 -4 -3 -13l-234 -552q-37 -90 -124 -90q-9 0 -27 2q-10 1 -16.5 8t-6.5 16
q0 10 7.5 17z" />
    <glyph glyph-name="z" unicode="z" horiz-adv-x="469" 
d="M61.5 8.5q-8.5 8.5 -8.5 20.5q0 10 6 17l283 391h-266q-9 0 -16 6.5t-7 15.5q0 10 7 17t16 7h307q12 0 20.5 -8t8.5 -21q0 -7 -6 -17l-286 -391h273q9 0 16 -6.5t7 -16.5t-7 -16.5t-16 -6.5h-311q-12 0 -20.5 8.5z" />
    <glyph glyph-name="braceleft" unicode="{" horiz-adv-x="249" 
d="M116 -174.5q-26 15.5 -42 43.5t-16 64v220q0 25 -10 44t-29 25q-7 2 -11.5 8.5t-4.5 13.5t4.5 13.5t11.5 8.5q19 6 29 25t10 44v219q0 36 16 64.5t42 44t54 15.5h45q8 0 14.5 -6.5t6.5 -14.5q0 -9 -6.5 -15.5t-14.5 -6.5h-45q-28 0 -47.5 -23t-19.5 -58v-222
q0 -68 -46 -88q46 -20 46 -88v-222q0 -34 20 -57.5t47 -23.5h45q8 0 14.5 -6.5t6.5 -15.5t-6.5 -15t-14.5 -6h-45q-28 0 -54 15.5z" />
    <glyph glyph-name="bar" unicode="|" horiz-adv-x="208" 
d="M89.5 -16.5q-6.5 6.5 -6.5 14.5v671q0 8 6.5 14.5t14.5 6.5q9 0 15.5 -6.5t6.5 -14.5v-671q0 -8 -6.5 -14.5t-15.5 -6.5q-8 0 -14.5 6.5z" />
    <glyph glyph-name="braceright" unicode="}" horiz-adv-x="249" 
d="M34 -190q-8 0 -14.5 6t-6.5 15t6.5 15.5t14.5 6.5h45q27 0 47 23.5t20 57.5v222q0 68 46 88q-46 20 -46 88v222q0 35 -19.5 58t-47.5 23h-45q-8 0 -14.5 6.5t-6.5 15.5q0 8 6.5 14.5t14.5 6.5h45q28 0 54 -15.5t42 -44t16 -64.5v-219q0 -25 10 -44t29 -25q7 -2 11.5 -8.5
t4.5 -13.5t-4.5 -13.5t-11.5 -8.5q-19 -6 -29 -25t-10 -44v-220q0 -36 -16 -64t-42 -43.5t-54 -15.5h-45z" />
    <glyph glyph-name="asciitilde" unicode="~" horiz-adv-x="499" 
d="M465 660q6 -8 5 -16q-11 -100 -41 -158t-91 -58q-32 0 -52 16t-31.5 38.5t-24.5 58.5q-16 43 -29.5 63t-39.5 20q-36 0 -57.5 -45t-31.5 -133q-1 -8 -7 -13.5t-14 -5.5q-10 0 -16.5 7t-5.5 17q11 99 41.5 156.5t90.5 57.5q32 0 52 -16t31.5 -38.5t24.5 -58.5
q16 -43 30 -63.5t39 -20.5q36 0 57.5 45.5t31.5 135.5q1 8 7 13.5t15 5.5q10 0 16 -8z" />
    <glyph glyph-name="uni00A0" unicode="&#xa0;" horiz-adv-x="259" 
 />
    <glyph glyph-name="exclamdown" unicode="&#xa1;" horiz-adv-x="219" 
d="M140.5 479q13.5 -13 13.5 -30q0 -18 -13.5 -31t-31.5 -13t-30.5 13t-12.5 31q0 17 12.5 30t30.5 13t31.5 -13zM95 306q6 6 15 6q8 0 14.5 -6t6.5 -14l12 -445q0 -14 -10 -24t-23 -10q-14 0 -24 10t-10 24l12 445q1 8 7 14z" />
    <glyph glyph-name="cent" unicode="&#xa2;" horiz-adv-x="494" 
d="M444.5 88.5q6.5 -6.5 6.5 -17.5t-7 -18q-29 -30 -63 -46.5t-79 -18.5v-69q0 -9 -6.5 -15.5t-16.5 -6.5q-9 0 -15.5 6.5t-6.5 15.5v71q-61 7 -107 42.5t-71.5 90t-25.5 119.5t25.5 119.5t71.5 89.5t107 42v53q0 9 6.5 15.5t15.5 6.5q10 0 16.5 -6.5t6.5 -15.5v-51
q46 -2 79.5 -18.5t62.5 -46.5q7 -9 7 -17q0 -10 -6.5 -17t-17.5 -7q-10 0 -16 7q-45 49 -109 52v-413q65 5 108 53q7 7 17 7q11 0 17.5 -6.5zM148.5 106.5q39.5 -56.5 108.5 -68.5v407q-69 -12 -108.5 -68t-39.5 -135t39.5 -135.5z" />
    <glyph glyph-name="sterling" unicode="&#xa3;" horiz-adv-x="505" 
d="M481.5 60.5q7.5 -7.5 7.5 -18.5q0 -14 -12 -23q-46 -33 -111 -33q-31 0 -51.5 6.5t-43.5 18.5q-24 11 -40.5 16.5t-43.5 5.5q-41 0 -101 -34q-6 -2 -11 -2q-10 0 -18 7.5t-8 17.5q0 15 14 24q63 33 94.5 74t31.5 86q0 32 -16 61h-137q-8 0 -14.5 6.5t-6.5 14.5
q0 9 6.5 15t14.5 6h107l-18 20q-37 41 -56 74t-19 82q0 51 28.5 95t78 70.5t109.5 26.5q53 0 98.5 -22.5t74.5 -63.5q6 -6 6 -16q0 -11 -7.5 -19t-18.5 -8q-14 0 -22 11q-19 29 -53 48.5t-74 19.5q-67 0 -113 -38.5t-46 -104.5q0 -43 16.5 -72.5t50.5 -68.5q20 -22 28 -34
h133q8 0 14.5 -6t6.5 -15q0 -8 -6.5 -14.5t-14.5 -6.5h-108q10 -27 10 -53q0 -46 -21.5 -79t-59.5 -61q25 9 54 9q22 0 39 -5.5t43 -17.5q21 -10 37 -15.5t35 -5.5q23 0 45 7.5t37 18.5q5 3 13 3q11 0 18.5 -7.5z" />
    <glyph glyph-name="currency" unicode="&#xa4;" horiz-adv-x="588" 
d="M543 117q7 -7 7 -16q0 -10 -7 -17t-17 -7q-11 0 -16 7l-65 65q-61 -53 -152 -53q-90 0 -151 53l-65 -65q-5 -7 -16 -7q-10 0 -17 7t-7 17q0 9 7 16l66 66q-23 30 -35.5 68.5t-12.5 81.5q0 88 48 151l-67 67q-7 7 -7 16q0 10 7 17t17 7t17 -7l66 -66q62 51 150 51
q89 0 151 -51l66 65q5 7 16 7q10 0 17 -7t7 -17q0 -9 -7 -16l-66 -66q48 -63 48 -151q0 -43 -12.5 -81.5t-35.5 -68.5zM388.5 171q40.5 26 61 69t20.5 93t-21 92.5t-61 68.5t-95 26q-54 0 -94.5 -26t-61.5 -69t-21 -92q0 -50 21 -93t61.5 -69t94.5 -26q55 0 95.5 26z" />
    <glyph glyph-name="yen" unicode="&#xa5;" horiz-adv-x="618" 
d="M571.5 661.5q8.5 -8.5 8.5 -19.5t-6 -16l-208 -299h213q8 0 14.5 -6.5t6.5 -14.5t-6.5 -14.5t-14.5 -6.5h-241v-118h241q8 0 14.5 -6.5t6.5 -14.5t-6.5 -14t-14.5 -6h-241v-100q0 -11 -8.5 -20t-20.5 -9t-20.5 9t-8.5 20v100h-241q-8 0 -14.5 6t-6.5 14t6.5 14.5
t14.5 6.5h241v118h-241q-8 0 -14.5 6.5t-6.5 14.5t6.5 14.5t14.5 6.5h213l-208 298q-6 8 -6 17q0 11 8.5 19.5t20.5 8.5q17 0 24 -12l218 -319l218 319q8 12 24 12q12 0 20.5 -8.5z" />
    <glyph glyph-name="brokenbar" unicode="&#xa6;" horiz-adv-x="208" 
d="M89.5 374.5q-6.5 6.5 -6.5 14.5v280q0 8 6.5 14.5t14.5 6.5q9 0 15.5 -6.5t6.5 -14.5v-280q0 -8 -6.5 -14.5t-15.5 -6.5q-8 0 -14.5 6.5zM89.5 -16.5q-6.5 6.5 -6.5 14.5v280q0 8 6.5 14.5t14.5 6.5q9 0 15.5 -6.5t6.5 -14.5v-280q0 -8 -6.5 -14.5t-15.5 -6.5
q-8 0 -14.5 6.5z" />
    <glyph glyph-name="section" unicode="&#xa7;" horiz-adv-x="461" 
d="M381.5 136.5q24.5 -28.5 24.5 -74.5q0 -67 -49.5 -105t-131.5 -38q-59 0 -99 16.5t-72 46.5q-9 9 -9 18q0 10 7 16.5t17 6.5q9 0 15 -6q59 -57 141 -57q57 0 93.5 27t36.5 73q0 42 -34.5 62t-103.5 36q-56 15 -88 28t-55.5 39t-23.5 69q0 51 34 83.5t89 45.5
q-60 18 -91.5 46t-31.5 76q0 36 20 66t59 48t93 18q95 0 159 -58q7 -9 7 -17q0 -9 -6 -15.5t-15 -6.5q-10 0 -14 6q-25 25 -59.5 37.5t-70.5 12.5q-54 0 -88 -25.5t-34 -66.5q0 -26 17 -42.5t42.5 -25.5t70.5 -20q55 -13 90.5 -26.5t60 -42t24.5 -76.5q0 -87 -96 -128
q47 -18 71.5 -46.5zM129.5 361.5q-28.5 -26.5 -28.5 -64.5q0 -30 21 -48t50 -27t89 -24q46 20 69.5 46t23.5 63q0 43 -33.5 64t-91.5 36q-71 -19 -99.5 -45.5z" />
    <glyph glyph-name="dieresis" unicode="&#xa8;" horiz-adv-x="409" 
d="M76 579q-11 11 -11 27q0 15 11 26t26 11t26 -11t11 -26q0 -16 -11 -27t-26 -11t-26 11zM280 579q-11 11 -11 27q0 15 11 26t26 11t26.5 -11t11.5 -26q0 -16 -11.5 -27t-26.5 -11t-26 11z" />
    <glyph glyph-name="copyright" unicode="&#xa9;" horiz-adv-x="778" 
d="M90.5 506q46.5 79 125.5 125.5t173 46.5t173 -46.5t125.5 -125.5t46.5 -173t-46.5 -173t-125.5 -125.5t-173 -46.5q-93 0 -172.5 46.5t-126 126t-46.5 172.5q0 94 46.5 173zM663.5 492q-42.5 73 -115.5 115.5t-159 42.5t-158.5 -42.5t-115.5 -115.5t-43 -159
q0 -85 43 -157.5t115.5 -115.5t158.5 -43t159 43t115.5 115.5t42.5 157.5q0 86 -42.5 159zM210 443.5q28 48.5 75.5 76.5t104.5 28q84 0 138 -56q4 -6 4 -11q0 -7 -4.5 -11.5t-11.5 -4.5q-6 0 -12 6q-21 22 -51.5 34.5t-62.5 12.5q-46 0 -86.5 -23t-64.5 -65t-24 -96
q0 -52 24.5 -94.5t64.5 -66.5t86 -24q32 0 63 13t51 35q6 6 12 6q7 0 11.5 -5t4.5 -11q0 -7 -4 -11q-57 -57 -138 -57q-57 0 -104.5 28.5t-75.5 78t-28 109.5t28 108.5z" />
    <glyph glyph-name="ordfeminine" unicode="&#xaa;" horiz-adv-x="375" 
d="M276 622q34 -26 34 -79v-199q0 -8 -6 -14.5t-15 -6.5t-15 6.5t-6 15.5v18q-42 -45 -110 -45q-45 0 -78.5 28.5t-33.5 76.5t33.5 75.5t78.5 27.5q68 0 110 -44v61q0 33 -25 51.5t-60 18.5q-53 0 -89 -37q-6 -4 -12 -4q-7 0 -12.5 5.5t-5.5 12.5q0 8 7 13q25 23 53.5 34
t63.5 11q54 0 88 -26zM227 359q25 11 41 31v65q-15 20 -40.5 30.5t-53.5 10.5q-37 0 -61 -20.5t-24 -52.5q0 -33 24 -54t61 -21q28 0 53 11z" />
    <glyph glyph-name="guillemotleft" unicode="&#xab;" horiz-adv-x="402" 
d="M186 67l-137 154q-9 11 -9 22q0 12 9 22l137 151q5 7 16 7q9 0 15 -6.5t6 -14.5q0 -7 -5 -14l-131 -145l131 -147q6 -6 6 -15q0 -8 -6.5 -14.5t-15.5 -6.5t-16 7zM311 67l-137 154q-9 11 -9 22q0 12 9 22l137 151q5 7 16 7q8 0 14 -6.5t6 -14.5q0 -9 -4 -14l-131 -145
l131 -147q5 -7 5 -15t-6.5 -14.5t-14.5 -6.5q-11 0 -16 7z" />
    <glyph glyph-name="logicalnot" unicode="&#xac;" horiz-adv-x="499" 
d="M461 218.5q-6 -6.5 -15 -6.5t-15.5 7t-6.5 15v177h-377q-8 0 -14.5 6.5t-6.5 14.5t6.5 14.5t14.5 6.5h389q15 0 23 -8.5t8 -23.5v-187q0 -9 -6 -15.5z" />
    <glyph glyph-name="uni00AD" unicode="&#xad;" horiz-adv-x="300" 
d="M34 225q-7 7 -7 17t7 17t17 7h198q10 0 17 -7t7 -17t-7 -17t-17 -7h-198q-10 0 -17 7z" />
    <glyph glyph-name="registered" unicode="&#xae;" horiz-adv-x="494" 
d="M63.5 571.5q28.5 48.5 77 77t106.5 28.5t106.5 -28.5t77 -77t28.5 -106.5t-28.5 -106.5t-77 -77t-106.5 -28.5t-106.5 28.5t-77 77t-28.5 106.5t28.5 106.5zM407 558.5q-25 42.5 -67.5 67t-92.5 24.5t-92.5 -24.5t-67.5 -67t-25 -93.5q0 -50 25 -92.5t67.5 -67.5
t92.5 -25t92.5 25t67.5 67.5t25 92.5q0 51 -25 93.5zM248 439h-51v-85q0 -7 -4 -11t-11 -4t-11 4t-4 11v212q0 8 6 14t14 6h79q32 0 53.5 -20.5t21.5 -53.5t-19 -50t-38 -22l52 -77q2 -3 2 -8q0 -7 -4.5 -11.5t-11.5 -4.5q-8 0 -13 6zM296.5 544.5q-13.5 13.5 -30.5 13.5
h-69v-90h69q16 0 30 13t14 31q0 19 -13.5 32.5z" />
    <glyph glyph-name="macron" unicode="&#xaf;" horiz-adv-x="363" 
d="M36.5 582.5q-5.5 5.5 -5.5 12.5q0 8 5.5 13.5t13.5 5.5h263q8 0 13.5 -5.5t5.5 -13.5q0 -7 -5.5 -12.5t-13.5 -5.5h-263q-8 0 -13.5 5.5z" />
    <glyph glyph-name="degree" unicode="&#xb0;" horiz-adv-x="282" 
d="M58.5 478.5q-33.5 33.5 -33.5 81.5t33.5 82.5t81.5 34.5q49 0 83 -34.5t34 -82.5t-34 -81.5t-83 -33.5q-48 0 -81.5 33.5zM86.5 615q-22.5 -23 -22.5 -55q0 -31 22.5 -53.5t53.5 -22.5q32 0 55 22.5t23 53.5q0 32 -23 55t-55 23q-31 0 -53.5 -23z" />
    <glyph glyph-name="plusminus" unicode="&#xb1;" horiz-adv-x="496" 
d="M271 124q0 -8 -6.5 -15t-16.5 -7q-9 0 -15.5 7t-6.5 15v199h-179q-8 0 -14.5 6t-6.5 14q0 9 6.5 15t14.5 6h179v192q0 9 6.5 16t15.5 7q10 0 16.5 -7t6.5 -16v-192h179q8 0 14.5 -6t6.5 -14q0 -9 -6.5 -15t-14.5 -6h-179v-199zM32.5 6q-6.5 6 -6.5 15q0 8 6.5 14t14.5 6
h403q8 0 14.5 -6t6.5 -15q0 -8 -6.5 -14t-14.5 -6h-403q-8 0 -14.5 6z" />
    <glyph glyph-name="uni00B2" unicode="&#xb2;" horiz-adv-x="337" 
d="M26 427.5q-7 6.5 -7 16.5q0 11 10 18q118 84 173 140.5t55 107.5q0 40 -27 59.5t-66 19.5q-64 0 -102 -40q-5 -5 -13 -5t-13.5 5.5t-5.5 13.5q0 7 5 14q24 24 58 37t72 13q55 0 95.5 -29t40.5 -86q0 -60 -54.5 -119t-158.5 -134h199q8 0 13.5 -5.5t5.5 -13.5t-5.5 -13.5
t-13.5 -5.5h-245q-9 0 -16 6.5z" />
    <glyph glyph-name="uni00B3" unicode="&#xb3;" horiz-adv-x="364" 
d="M92.5 428.5q-34.5 14.5 -56.5 38.5q-6 6 -6 14t6 13.5t14 5.5q9 0 13 -5q41 -43 106 -43q47 0 73.5 20.5t26.5 57.5q0 40 -30.5 59t-79.5 19h-23q-7 0 -12.5 5.5t-5.5 12.5q0 8 5.5 13.5t12.5 5.5h23q46 0 75 17.5t29 54.5q0 34 -27.5 53t-68.5 19q-31 0 -54.5 -9.5
t-45.5 -29.5q-5 -5 -13 -5q-7 0 -12.5 5.5t-5.5 12.5q0 9 6 15q54 49 128 49q60 0 98.5 -28.5t38.5 -77.5q0 -41 -27.5 -64.5t-61.5 -28.5q34 -3 65 -28.5t31 -70.5q0 -51 -39 -83t-105 -32q-43 0 -77.5 14.5z" />
    <glyph glyph-name="acute" unicode="&#xb4;" horiz-adv-x="216" 
d="M34 553q-6 0 -10.5 4.5t-4.5 10.5q0 4 5 11l127 118q6 6 14 6t14 -6t6 -14q0 -10 -7 -15l-133 -111q-4 -4 -11 -4z" />
    <glyph glyph-name="uni00B5" unicode="&#xb5;" horiz-adv-x="554" 
d="M528 27q5 -7 5 -15q0 -10 -6 -16.5t-15 -7.5h-11q-81 0 -93 87q-30 -38 -73 -62.5t-88 -24.5q-84 0 -114 56v-205q0 -11 -7.5 -18.5t-18.5 -7.5q-10 0 -18 7.5t-8 18.5v621q0 11 8 18.5t18 7.5q11 0 18.5 -7.5t7.5 -18.5v-305q0 -65 30.5 -93.5t87.5 -28.5q44 0 87.5 24
t68.5 58v345q0 11 8 18.5t18 7.5q11 0 18.5 -7.5t7.5 -18.5v-361q0 -29 11.5 -46t34.5 -18h8q10 -1 15 -8z" />
    <glyph glyph-name="paragraph" unicode="&#xb6;" horiz-adv-x="449" 
d="M336 -97.5q-6 5.5 -6 13.5v714h-93v-714q0 -8 -5.5 -13.5t-13.5 -5.5q-7 0 -13 5.5t-6 13.5v407q-47 0 -86.5 23t-62.5 62.5t-23 86.5t23 86.5t62.5 62.5t86.5 23h137q15 0 23.5 -8t8.5 -23v-720q0 -8 -5.5 -13.5t-13.5 -5.5q-7 0 -13 5.5z" />
    <glyph glyph-name="periodcentered" unicode="&#xb7;" horiz-adv-x="219" 
d="M78 214q-13 13 -13 31q0 17 13 30t31 13t31.5 -13t13.5 -30q0 -18 -13.5 -31t-31.5 -13t-31 13z" />
    <glyph glyph-name="cedilla" unicode="&#xb8;" horiz-adv-x="198" 
d="M49 -182.5q-23 6.5 -40 16.5q-9 4 -9 15q0 8 5 13t12 5t11 -3q28 -20 68 -20q28 0 46.5 12t18.5 33q0 39 -41 39q-20 0 -34 -12q-6 -4 -12 -4q-8 0 -13.5 5t-5.5 13q0 3 2 9l26 72h38l-26 -68q15 12 37 12q29 0 47.5 -18t18.5 -48q0 -35 -29 -56.5t-72 -21.5
q-25 0 -48 6.5z" />
    <glyph glyph-name="uni00B9" unicode="&#xb9;" horiz-adv-x="211" 
d="M112 424.5q-7 6.5 -7 16.5v321l-52 -56q-5 -6 -14 -6q-8 0 -14 5.5t-6 13.5t6 14l81 83q6 8 19 8q11 0 18.5 -7.5t7.5 -18.5v-357q0 -10 -7 -16.5t-16 -6.5t-16 6.5z" />
    <glyph glyph-name="ordmasculine" unicode="&#xba;" horiz-adv-x="405" 
d="M64 566.5q20 37.5 56 59.5t82 22q47 0 83.5 -22t56 -59.5t19.5 -83.5t-19.5 -83.5t-56 -59.5t-83.5 -22q-46 0 -82 22t-56 60t-20 83q0 46 20 83.5zM286 573.5q-31 36.5 -84 36.5q-52 0 -82.5 -36t-30.5 -91t30.5 -91.5t82.5 -36.5q53 0 84 36.5t31 91.5q0 54 -31 90.5z
" />
    <glyph glyph-name="guillemotright" unicode="&#xbb;" horiz-adv-x="402" 
d="M59.5 66.5q-6.5 6.5 -6.5 14.5q0 7 6 15l131 147l-131 145q-5 7 -5 14q0 8 6 14.5t15 6.5q11 0 16 -7l137 -151q9 -10 9 -22q0 -11 -9 -22l-137 -154q-7 -7 -16 -7t-15.5 6.5zM184.5 66.5q-6.5 6.5 -6.5 14.5t5 15l132 147l-131 145q-5 5 -5 14q0 8 6 14.5t14 6.5
q11 0 16 -7l137 -151q9 -10 9 -22q0 -11 -9 -22l-137 -154q-5 -7 -16 -7q-8 0 -14.5 6.5z" />
    <glyph glyph-name="onequarter" unicode="&#xbc;" horiz-adv-x="681" 
d="M112 270.5q-7 6.5 -7 16.5v321l-52 -56q-5 -6 -14 -6q-8 0 -14 5.5t-6 13.5t6 14l81 83q6 8 19 8q11 0 18.5 -7.5t7.5 -18.5v-357q0 -10 -7 -16.5t-16 -6.5t-16 6.5zM125 -0.5q-5 -2.5 -9 -2.5q-8 0 -14 5.5t-6 13.5q0 5 4 11l404 634q6 9 17 9q8 0 14 -6t6 -14
q0 -5 -3 -10l-406 -634q-2 -4 -7 -6.5zM658 138.5q5 -5.5 5 -13.5q0 -7 -5 -12.5t-13 -5.5h-45v-88q0 -9 -6 -15.5t-16 -6.5t-16 6.5t-6 15.5v88h-176q-9 0 -16 6.5t-7 16.5q0 7 4 13l169 243q5 8 13.5 12.5t18.5 4.5q16 0 27 -11.5t11 -26.5v-221h45q8 0 13 -5.5zM406 144
h150v215z" />
    <glyph glyph-name="onehalf" unicode="&#xbd;" horiz-adv-x="721" 
d="M112 270.5q-7 6.5 -7 16.5v321l-52 -56q-5 -6 -14 -6q-8 0 -14 5.5t-6 13.5t6 14l81 83q6 8 19 8q11 0 18.5 -7.5t7.5 -18.5v-357q0 -10 -7 -16.5t-16 -6.5t-16 6.5zM125 -0.5q-5 -2.5 -9 -2.5q-8 0 -14 5.5t-6 13.5q0 5 4 11l404 634q6 9 17 9q8 0 14 -6t6 -14
q0 -5 -3 -10l-406 -634q-2 -4 -7 -6.5zM410 6.5q-7 6.5 -7 16.5q0 11 10 18q118 84 173 140.5t55 107.5q0 40 -27 59.5t-66 19.5q-64 0 -102 -40q-5 -5 -13 -5t-13.5 5.5t-5.5 13.5q0 7 5 14q24 24 58 37t72 13q55 0 95.5 -29t40.5 -86q0 -60 -54.5 -119t-158.5 -134h199
q8 0 13.5 -5.5t5.5 -13.5t-5.5 -13.5t-13.5 -5.5h-245q-9 0 -16 6.5z" />
    <glyph glyph-name="threequarters" unicode="&#xbe;" horiz-adv-x="791" 
d="M92.5 274.5q-34.5 14.5 -56.5 38.5q-6 6 -6 14t6 13.5t14 5.5q9 0 13 -5q41 -43 106 -43q47 0 73.5 20.5t26.5 57.5q0 40 -30.5 59t-79.5 19h-23q-7 0 -12.5 5.5t-5.5 12.5q0 8 5.5 13.5t12.5 5.5h23q46 0 75 17.5t29 54.5q0 34 -27.5 53t-68.5 19q-31 0 -54.5 -9.5
t-45.5 -29.5q-5 -5 -13 -5q-7 0 -12.5 5.5t-5.5 12.5q0 9 6 15q54 49 128 49q60 0 98.5 -28.5t38.5 -77.5q0 -41 -27.5 -64.5t-61.5 -28.5q34 -3 65 -28.5t31 -70.5q0 -51 -39 -83t-105 -32q-43 0 -77.5 14.5zM235 -0.5q-5 -2.5 -9 -2.5q-8 0 -14 5.5t-6 13.5q0 5 4 11
l404 634q6 9 17 9q8 0 14 -6t6 -14q0 -5 -3 -10l-406 -634q-2 -4 -7 -6.5zM768 138.5q5 -5.5 5 -13.5q0 -7 -5 -12.5t-13 -5.5h-45v-88q0 -9 -6 -15.5t-16 -6.5t-16 6.5t-6 15.5v88h-176q-9 0 -16 6.5t-7 16.5q0 7 4 13l169 243q5 8 13.5 12.5t18.5 4.5q16 0 27 -11.5
t11 -26.5v-221h45q8 0 13 -5.5zM516 144h150v215z" />
    <glyph glyph-name="questiondown" unicode="&#xbf;" horiz-adv-x="393" 
d="M272.5 418q-13.5 -13 -31.5 -13t-31 13t-13 30q0 18 13 31t31 13t31.5 -13t13.5 -31q0 -17 -13.5 -30zM278.5 173q-13.5 -24 -33 -41t-53.5 -41q-48 -33 -72 -59t-24 -66q0 -46 36 -77t99 -31q54 0 92 18t68 54q8 8 18 8q11 0 18.5 -8t7.5 -19t-7 -18q-77 -87 -201 -87
q-58 0 -101.5 20.5t-66.5 56t-23 77.5q0 39 16.5 68.5t39.5 49.5t60 46q45 30 66.5 52.5t21.5 54.5q0 7 -4.5 16.5t-12.5 18.5q-3 5 -3 11q0 10 7 17.5t18 7.5q12 0 19 -10q28 -29 28 -64q0 -31 -13.5 -55z" />
    <glyph glyph-name="Agrave" unicode="&#xc0;" horiz-adv-x="647" 
d="M619 27q0 -12 -8.5 -21t-21.5 -9q-10 0 -17.5 5.5t-10.5 13.5l-59 148h-357l-59 -148q-3 -8 -11 -13.5t-17 -5.5q-13 0 -21.5 9t-8.5 21q0 5 3 12l246 600q5 14 18 22.5t28 8.5t28 -8.5t19 -22.5l246 -600q3 -9 3 -12zM166 216h315l-158 395zM173 835q-7 5 -7 15
q0 8 6 14t14 6q7 0 13 -6l127 -118q5 -5 5 -11t-4.5 -10.5t-10.5 -4.5t-10 4z" />
    <glyph glyph-name="Aacute" unicode="&#xc1;" horiz-adv-x="647" 
d="M619 27q0 -12 -8.5 -21t-21.5 -9q-10 0 -17.5 5.5t-10.5 13.5l-59 148h-357l-59 -148q-3 -8 -11 -13.5t-17 -5.5q-13 0 -21.5 9t-8.5 21q0 5 3 12l246 600q5 14 18 22.5t28 8.5t28 -8.5t19 -22.5l246 -600q3 -9 3 -12zM166 216h315l-158 395zM331 720q-6 0 -10.5 4.5
t-4.5 10.5q0 4 5 11l127 118q6 6 14 6t14 -6t6 -14q0 -10 -7 -15l-133 -111q-4 -4 -11 -4z" />
    <glyph glyph-name="Acircumflex" unicode="&#xc2;" horiz-adv-x="647" 
d="M619 27q0 -12 -8.5 -21t-21.5 -9q-10 0 -17.5 5.5t-10.5 13.5l-59 148h-357l-59 -148q-3 -8 -11 -13.5t-17 -5.5q-13 0 -21.5 9t-8.5 21q0 5 3 12l246 600q5 14 18 22.5t28 8.5t28 -8.5t19 -22.5l246 -600q3 -9 3 -12zM166 216h315l-158 395zM325 836l-86 -114
q-6 -6 -12 -6q-7 0 -12 5t-5 12q0 3 2 9l80 116q4 7 12 11t16 4h9q8 0 16.5 -4t12.5 -11l79 -116q3 -4 3 -9q0 -7 -5.5 -12t-12.5 -5q-6 0 -12 6z" />
    <glyph glyph-name="Atilde" unicode="&#xc3;" horiz-adv-x="647" 
d="M619 27q0 -12 -8.5 -21t-21.5 -9q-10 0 -17.5 5.5t-10.5 13.5l-59 148h-357l-59 -148q-3 -8 -11 -13.5t-17 -5.5q-13 0 -21.5 9t-8.5 21q0 5 3 12l246 600q5 14 18 22.5t28 8.5t28 -8.5t19 -22.5l246 -600q3 -9 3 -12zM166 216h315l-158 395zM342 735.5
q-15 14.5 -33 43.5q-13 22 -23.5 33.5t-26.5 11.5q-22 0 -36.5 -21t-16.5 -63q-1 -7 -6 -11.5t-12 -4.5t-12.5 6t-4.5 13q4 53 28 85.5t64 32.5q27 0 42.5 -14.5t32.5 -43.5q14 -23 24 -33.5t26 -10.5q22 0 36.5 20.5t16.5 62.5q1 7 6 11.5t12 4.5t12.5 -5.5t4.5 -13.5
q-4 -53 -28 -85.5t-63 -32.5q-28 0 -43 14.5z" />
    <glyph glyph-name="Adieresis" unicode="&#xc4;" horiz-adv-x="647" 
d="M619 27q0 -12 -8.5 -21t-21.5 -9q-10 0 -17.5 5.5t-10.5 13.5l-59 148h-357l-59 -148q-3 -8 -11 -13.5t-17 -5.5q-13 0 -21.5 9t-8.5 21q0 5 3 12l246 600q5 14 18 22.5t28 8.5t28 -8.5t19 -22.5l246 -600q3 -9 3 -12zM166 216h315l-158 395zM195 746q-11 11 -11 27
q0 15 11 26t26 11t26 -11t11 -26q0 -16 -11 -27t-26 -11t-26 11zM399 746q-11 11 -11 27q0 15 11 26t26 11t26.5 -11t11.5 -26q0 -16 -11.5 -27t-26.5 -11t-26 11z" />
    <glyph glyph-name="Aring" unicode="&#xc5;" horiz-adv-x="647" 
d="M619 27q0 -12 -8.5 -21t-21.5 -9q-10 0 -17.5 5.5t-10.5 13.5l-59 148h-357l-59 -148q-3 -8 -11 -13.5t-17 -5.5q-13 0 -21.5 9t-8.5 21q0 5 3 12l246 600q5 14 18 22.5t28 8.5t28 -8.5t19 -22.5l246 -600q3 -9 3 -12zM166 216h315l-158 395zM256 878.5q28 28.5 68 28.5
q39 0 66.5 -28.5t27.5 -67.5q0 -40 -27.5 -68t-66.5 -28q-40 0 -68 28t-28 68q0 39 28 67.5zM368.5 856q-18.5 19 -44.5 19t-45 -19t-19 -45t19 -45t45 -19t44.5 19t18.5 45t-18.5 45z" />
    <glyph glyph-name="AE" unicode="&#xc6;" horiz-adv-x="939" 
d="M874.5 44.5q7.5 -7.5 7.5 -18.5q0 -10 -7.5 -18t-18.5 -8h-368q-15 0 -23.5 8.5t-8.5 22.5v133h-276l-95 -154q-8 -13 -24 -13q-11 0 -19 8t-8 20q0 4 4 14l383 607q13 21 38 21h397q11 0 18.5 -7.5t7.5 -18.5q0 -10 -7.5 -18t-18.5 -8h-342v-247h335q11 0 18.5 -7.5
t7.5 -18.5q0 -10 -7.5 -18t-18.5 -8h-335v-264h342q11 0 18.5 -7.5zM212 216h244v396z" />
    <glyph glyph-name="Ccedilla" unicode="&#xc7;" horiz-adv-x="669" 
d="M619.5 122.5q8.5 -8.5 8.5 -19.5q0 -13 -8 -19q-89 -92 -215 -96l-17 -45q15 12 37 12q29 0 47.5 -18t18.5 -48q0 -35 -29 -56.5t-72 -21.5q-25 0 -48 6.5t-40 16.5q-9 4 -9 15q0 8 5 13t12 5t11 -3q28 -20 68 -20q28 0 46.5 12t18.5 33q0 39 -41 39q-20 0 -34 -12
q-6 -4 -12 -4q-8 0 -13.5 5t-5.5 13q0 3 2 9l18 50q-87 6 -158 51t-111.5 121.5t-40.5 171.5q0 100 44.5 179t121.5 122.5t170 43.5q136 0 226 -95q7 -7 7 -19t-8 -20t-20 -8q-13 0 -21 9q-34 38 -82 59.5t-102 21.5q-77 0 -140 -37t-99.5 -104t-36.5 -152q0 -84 36.5 -151
t99.5 -104.5t140 -37.5q54 0 102.5 21.5t82.5 60.5q8 9 20 9t20.5 -8.5z" />
    <glyph glyph-name="Egrave" unicode="&#xc8;" horiz-adv-x="564" 
d="M91 8.5q-8 8.5 -8 22.5v605q0 31 31 31h369q11 0 18.5 -7.5t7.5 -18.5q0 -10 -7.5 -18t-18.5 -8h-343v-247h336q11 0 18.5 -7.5t7.5 -18.5q0 -10 -7.5 -18t-18.5 -8h-336v-264h343q11 0 18.5 -7.5t7.5 -18.5q0 -10 -7.5 -18t-18.5 -8h-369q-15 0 -23 8.5zM149 835
q-7 5 -7 15q0 8 6 14t14 6q7 0 13 -6l127 -118q5 -5 5 -11t-4.5 -10.5t-10.5 -4.5t-10 4z" />
    <glyph glyph-name="Eacute" unicode="&#xc9;" horiz-adv-x="564" 
d="M91 8.5q-8 8.5 -8 22.5v605q0 31 31 31h369q11 0 18.5 -7.5t7.5 -18.5q0 -10 -7.5 -18t-18.5 -8h-343v-247h336q11 0 18.5 -7.5t7.5 -18.5q0 -10 -7.5 -18t-18.5 -8h-336v-264h343q11 0 18.5 -7.5t7.5 -18.5q0 -10 -7.5 -18t-18.5 -8h-369q-15 0 -23 8.5zM307 720
q-6 0 -10.5 4.5t-4.5 10.5q0 4 5 11l127 118q6 6 14 6t14 -6t6 -14q0 -10 -7 -15l-133 -111q-4 -4 -11 -4z" />
    <glyph glyph-name="Ecircumflex" unicode="&#xca;" horiz-adv-x="564" 
d="M91 8.5q-8 8.5 -8 22.5v605q0 31 31 31h369q11 0 18.5 -7.5t7.5 -18.5q0 -10 -7.5 -18t-18.5 -8h-343v-247h336q11 0 18.5 -7.5t7.5 -18.5q0 -10 -7.5 -18t-18.5 -8h-336v-264h343q11 0 18.5 -7.5t7.5 -18.5q0 -10 -7.5 -18t-18.5 -8h-369q-15 0 -23 8.5zM301 836
l-86 -114q-6 -6 -12 -6q-7 0 -12 5t-5 12q0 3 2 9l80 116q4 7 12 11t16 4h9q8 0 16.5 -4t12.5 -11l79 -116q3 -4 3 -9q0 -7 -5.5 -12t-12.5 -5q-6 0 -12 6z" />
    <glyph glyph-name="Edieresis" unicode="&#xcb;" horiz-adv-x="564" 
d="M91 8.5q-8 8.5 -8 22.5v605q0 31 31 31h369q11 0 18.5 -7.5t7.5 -18.5q0 -10 -7.5 -18t-18.5 -8h-343v-247h336q11 0 18.5 -7.5t7.5 -18.5q0 -10 -7.5 -18t-18.5 -8h-336v-264h343q11 0 18.5 -7.5t7.5 -18.5q0 -10 -7.5 -18t-18.5 -8h-369q-15 0 -23 8.5zM171 746
q-11 11 -11 27q0 15 11 26t26 11t26 -11t11 -26q0 -16 -11 -27t-26 -11t-26 11zM375 746q-11 11 -11 27q0 15 11 26t26 11t26.5 -11t11.5 -26q0 -16 -11.5 -27t-26.5 -11t-26 11z" />
    <glyph glyph-name="Igrave" unicode="&#xcc;" horiz-adv-x="223" 
d="M91.5 6q-8.5 9 -8.5 20v615q0 12 8.5 20.5t20.5 8.5t20 -8.5t8 -20.5v-615q0 -12 -8 -20.5t-20 -8.5t-20.5 9zM-38 835q-7 5 -7 15q0 8 6 14t14 6q7 0 13 -6l127 -118q5 -5 5 -11t-4.5 -10.5t-10.5 -4.5t-10 4z" />
    <glyph glyph-name="Iacute" unicode="&#xcd;" horiz-adv-x="223" 
d="M91.5 6q-8.5 9 -8.5 20v615q0 12 8.5 20.5t20.5 8.5t20 -8.5t8 -20.5v-615q0 -12 -8 -20.5t-20 -8.5t-20.5 9zM120 720q-6 0 -10.5 4.5t-4.5 10.5q0 4 5 11l127 118q6 6 14 6t14 -6t6 -14q0 -10 -7 -15l-133 -111q-4 -4 -11 -4z" />
    <glyph glyph-name="Icircumflex" unicode="&#xce;" horiz-adv-x="223" 
d="M91.5 6q-8.5 9 -8.5 20v615q0 12 8.5 20.5t20.5 8.5t20 -8.5t8 -20.5v-615q0 -12 -8 -20.5t-20 -8.5t-20.5 9zM113 836l-86 -114q-6 -6 -12 -6q-7 0 -12 5t-5 12q0 3 2 9l80 116q4 7 12 11t16 4h9q8 0 16.5 -4t12.5 -11l79 -116q3 -4 3 -9q0 -7 -5.5 -12t-12.5 -5
q-6 0 -12 6z" />
    <glyph glyph-name="Idieresis" unicode="&#xcf;" horiz-adv-x="223" 
d="M91.5 6q-8.5 9 -8.5 20v615q0 12 8.5 20.5t20.5 8.5t20 -8.5t8 -20.5v-615q0 -12 -8 -20.5t-20 -8.5t-20.5 9zM-16 746q-11 11 -11 27q0 15 11 26t26 11t26 -11t11 -26q0 -16 -11 -27t-26 -11t-26 11zM188 746q-11 11 -11 27q0 15 11 26t26 11t26.5 -11t11.5 -26
q0 -16 -11.5 -27t-26.5 -11t-26 11z" />
    <glyph glyph-name="Eth" unicode="&#xd0;" horiz-adv-x="721" 
d="M503 622.5q77 -44.5 118.5 -121t41.5 -168.5q0 -93 -41.5 -169t-118.5 -120t-178 -44h-181q-15 0 -23.5 8.5t-8.5 22.5v276h-81q-9 0 -16 7t-7 17t7 16.5t16 6.5h81v282q0 15 8.5 23t23.5 8h181q101 0 178 -44.5zM473.5 89q62.5 37 95.5 101t33 143t-33 143t-95.5 101.5
t-148.5 37.5h-155v-261h159q9 0 16 -6.5t7 -16.5t-7 -17t-16 -7h-159v-255h155q86 0 148.5 37z" />
    <glyph glyph-name="Ntilde" unicode="&#xd1;" horiz-adv-x="699" 
d="M551 12l-411 564v-550q0 -12 -8 -20.5t-20 -8.5t-20.5 9t-8.5 20v606q0 16 10.5 27t26.5 11q20 0 31 -16l408 -555v542q0 12 8 20.5t20 8.5t20.5 -8.5t8.5 -20.5v-608q0 -14 -10.5 -25t-24.5 -11q-20 0 -30 15zM369 735.5q-15 14.5 -33 43.5q-13 22 -23.5 33.5
t-26.5 11.5q-22 0 -36.5 -21t-16.5 -63q-1 -7 -6 -11.5t-12 -4.5t-12.5 6t-4.5 13q4 53 28 85.5t64 32.5q27 0 42.5 -14.5t32.5 -43.5q14 -23 24 -33.5t26 -10.5q22 0 36.5 20.5t16.5 62.5q1 7 6 11.5t12 4.5t12.5 -5.5t4.5 -13.5q-4 -53 -28 -85.5t-63 -32.5
q-28 0 -43 14.5z" />
    <glyph glyph-name="Ograve" unicode="&#xd2;" horiz-adv-x="764" 
d="M98.5 509q40.5 79 114 124t169.5 45q95 0 169 -45t114.5 -124t40.5 -176t-40.5 -176t-114.5 -124t-169 -45q-96 0 -169.5 45t-114 124t-40.5 176t40.5 176zM613.5 484.5q-32.5 66.5 -92.5 104t-139 37.5q-80 0 -139.5 -37.5t-92 -104t-32.5 -151.5q0 -84 32.5 -150.5
t92.5 -104.5t139 -38q78 0 138 38t93 104.5t33 150.5q0 85 -32.5 151.5zM232 835q-7 5 -7 15q0 8 6 14t14 6q7 0 13 -6l127 -118q5 -5 5 -11t-4.5 -10.5t-10.5 -4.5t-10 4z" />
    <glyph glyph-name="Oacute" unicode="&#xd3;" horiz-adv-x="764" 
d="M98.5 509q40.5 79 114 124t169.5 45q95 0 169 -45t114.5 -124t40.5 -176t-40.5 -176t-114.5 -124t-169 -45q-96 0 -169.5 45t-114 124t-40.5 176t40.5 176zM613.5 484.5q-32.5 66.5 -92.5 104t-139 37.5q-80 0 -139.5 -37.5t-92 -104t-32.5 -151.5q0 -84 32.5 -150.5
t92.5 -104.5t139 -38q78 0 138 38t93 104.5t33 150.5q0 85 -32.5 151.5zM390 720q-6 0 -10.5 4.5t-4.5 10.5q0 4 5 11l127 118q6 6 14 6t14 -6t6 -14q0 -10 -7 -15l-133 -111q-4 -4 -11 -4z" />
    <glyph glyph-name="Ocircumflex" unicode="&#xd4;" horiz-adv-x="764" 
d="M98.5 509q40.5 79 114 124t169.5 45q95 0 169 -45t114.5 -124t40.5 -176t-40.5 -176t-114.5 -124t-169 -45q-96 0 -169.5 45t-114 124t-40.5 176t40.5 176zM613.5 484.5q-32.5 66.5 -92.5 104t-139 37.5q-80 0 -139.5 -37.5t-92 -104t-32.5 -151.5q0 -84 32.5 -150.5
t92.5 -104.5t139 -38q78 0 138 38t93 104.5t33 150.5q0 85 -32.5 151.5zM384 836l-86 -114q-6 -6 -12 -6q-7 0 -12 5t-5 12q0 3 2 9l80 116q4 7 12 11t16 4h9q8 0 16.5 -4t12.5 -11l79 -116q3 -4 3 -9q0 -7 -5.5 -12t-12.5 -5q-6 0 -12 6z" />
    <glyph glyph-name="Otilde" unicode="&#xd5;" horiz-adv-x="764" 
d="M98.5 509q40.5 79 114 124t169.5 45q95 0 169 -45t114.5 -124t40.5 -176t-40.5 -176t-114.5 -124t-169 -45q-96 0 -169.5 45t-114 124t-40.5 176t40.5 176zM613.5 484.5q-32.5 66.5 -92.5 104t-139 37.5q-80 0 -139.5 -37.5t-92 -104t-32.5 -151.5q0 -84 32.5 -150.5
t92.5 -104.5t139 -38q78 0 138 38t93 104.5t33 150.5q0 85 -32.5 151.5zM401 735.5q-15 14.5 -33 43.5q-13 22 -23.5 33.5t-26.5 11.5q-22 0 -36.5 -21t-16.5 -63q-1 -7 -6 -11.5t-12 -4.5t-12.5 6t-4.5 13q4 53 28 85.5t64 32.5q27 0 42.5 -14.5t32.5 -43.5
q14 -23 24 -33.5t26 -10.5q22 0 36.5 20.5t16.5 62.5q1 7 6 11.5t12 4.5t12.5 -5.5t4.5 -13.5q-4 -53 -28 -85.5t-63 -32.5q-28 0 -43 14.5z" />
    <glyph glyph-name="Odieresis" unicode="&#xd6;" horiz-adv-x="764" 
d="M98.5 509q40.5 79 114 124t169.5 45q95 0 169 -45t114.5 -124t40.5 -176t-40.5 -176t-114.5 -124t-169 -45q-96 0 -169.5 45t-114 124t-40.5 176t40.5 176zM613.5 484.5q-32.5 66.5 -92.5 104t-139 37.5q-80 0 -139.5 -37.5t-92 -104t-32.5 -151.5q0 -84 32.5 -150.5
t92.5 -104.5t139 -38q78 0 138 38t93 104.5t33 150.5q0 85 -32.5 151.5zM254 746q-11 11 -11 27q0 15 11 26t26 11t26 -11t11 -26q0 -16 -11 -27t-26 -11t-26 11zM458 746q-11 11 -11 27q0 15 11 26t26 11t26.5 -11t11.5 -26q0 -16 -11.5 -27t-26.5 -11t-26 11z" />
    <glyph glyph-name="multiply" unicode="&#xd7;" horiz-adv-x="496" 
d="M109 165q-7 -5 -14 -5q-9 0 -15 6t-6 14t6 14l139 140l-139 139q-6 8 -6 15q0 8 6 14t15 6t14 -5l139 -140l140 140q5 5 14 5q8 0 14.5 -6t6.5 -14q0 -7 -6 -15l-140 -139l140 -140q6 -6 6 -14t-6.5 -14t-14.5 -6q-9 0 -14 5l-140 140z" />
    <glyph glyph-name="Oslash" unicode="&#xd8;" horiz-adv-x="764" 
d="M673.5 491.5q32.5 -72.5 32.5 -158.5q0 -97 -40.5 -176t-114.5 -124t-169 -45q-94 0 -168 44l-16 -25q-5 -10 -17 -10q-9 0 -15 6.5t-6 15.5q0 8 3 11l17 26q-58 47 -90 119t-32 158q0 97 40.5 176t114 124t169.5 45q92 0 165 -42l15 24q7 10 18 10q9 0 15 -6t6 -15
q0 -7 -3 -12l-16 -25q59 -48 91.5 -120.5zM141.5 202q23.5 -59 67.5 -99l309 487q-61 36 -136 36q-80 0 -139.5 -37.5t-92 -104t-32.5 -151.5q0 -72 23.5 -131zM520 78q60 38 93 104.5t33 150.5q0 73 -24.5 133t-69.5 99l-309 -487q62 -38 139 -38q78 0 138 38z" />
    <glyph glyph-name="Ugrave" unicode="&#xd9;" horiz-adv-x="686" 
d="M83 641q0 12 8.5 20.5t20.5 8.5t20.5 -8.5t8.5 -20.5v-384q0 -102 52.5 -159.5t149.5 -57.5q98 0 150 57t52 160v384q0 12 8.5 20.5t20.5 8.5q13 0 21 -8.5t8 -20.5v-385q0 -126 -66.5 -197t-193.5 -71q-126 0 -193 71.5t-67 196.5v385zM193 835q-7 5 -7 15q0 8 6 14
t14 6q7 0 13 -6l127 -118q5 -5 5 -11t-4.5 -10.5t-10.5 -4.5t-10 4z" />
    <glyph glyph-name="Uacute" unicode="&#xda;" horiz-adv-x="686" 
d="M83 641q0 12 8.5 20.5t20.5 8.5t20.5 -8.5t8.5 -20.5v-384q0 -102 52.5 -159.5t149.5 -57.5q98 0 150 57t52 160v384q0 12 8.5 20.5t20.5 8.5q13 0 21 -8.5t8 -20.5v-385q0 -126 -66.5 -197t-193.5 -71q-126 0 -193 71.5t-67 196.5v385zM351 720q-6 0 -10.5 4.5
t-4.5 10.5q0 4 5 11l127 118q6 6 14 6t14 -6t6 -14q0 -10 -7 -15l-133 -111q-4 -4 -11 -4z" />
    <glyph glyph-name="Ucircumflex" unicode="&#xdb;" horiz-adv-x="686" 
d="M83 641q0 12 8.5 20.5t20.5 8.5t20.5 -8.5t8.5 -20.5v-384q0 -102 52.5 -159.5t149.5 -57.5q98 0 150 57t52 160v384q0 12 8.5 20.5t20.5 8.5q13 0 21 -8.5t8 -20.5v-385q0 -126 -66.5 -197t-193.5 -71q-126 0 -193 71.5t-67 196.5v385zM345 836l-86 -114q-6 -6 -12 -6
q-7 0 -12 5t-5 12q0 3 2 9l80 116q4 7 12 11t16 4h9q8 0 16.5 -4t12.5 -11l79 -116q3 -4 3 -9q0 -7 -5.5 -12t-12.5 -5q-6 0 -12 6z" />
    <glyph glyph-name="Udieresis" unicode="&#xdc;" horiz-adv-x="686" 
d="M83 641q0 12 8.5 20.5t20.5 8.5t20.5 -8.5t8.5 -20.5v-384q0 -102 52.5 -159.5t149.5 -57.5q98 0 150 57t52 160v384q0 12 8.5 20.5t20.5 8.5q13 0 21 -8.5t8 -20.5v-385q0 -126 -66.5 -197t-193.5 -71q-126 0 -193 71.5t-67 196.5v385zM215 746q-11 11 -11 27
q0 15 11 26t26 11t26 -11t11 -26q0 -16 -11 -27t-26 -11t-26 11zM419 746q-11 11 -11 27q0 15 11 26t26 11t26.5 -11t11.5 -26q0 -16 -11.5 -27t-26.5 -11t-26 11z" />
    <glyph glyph-name="Yacute" unicode="&#xdd;" horiz-adv-x="618" 
d="M575 626l-237 -340v-260q0 -11 -8.5 -20t-20.5 -9t-20.5 9t-8.5 20v259l-237 340q-5 7 -5 17q0 11 8.5 19.5t20.5 8.5q17 0 24 -12l218 -321l218 321q8 12 24 12q12 0 20.5 -8.5t8.5 -19.5t-5 -16zM317 720q-6 0 -10.5 4.5t-4.5 10.5q0 4 5 11l127 118q6 6 14 6t14 -6
t6 -14q0 -10 -7 -15l-133 -111q-4 -4 -11 -4z" />
    <glyph glyph-name="Thorn" unicode="&#xde;" 
d="M91.5 6q-8.5 9 -8.5 20v615q0 12 8.5 20.5t20.5 8.5t20 -8.5t8 -20.5v-98h193q62 0 107.5 -26.5t69.5 -71.5t24 -98t-24 -97.5t-69.5 -70.5t-107.5 -26h-193v-127q0 -12 -8 -20.5t-20 -8.5t-20.5 9zM433 450.5q-41 40.5 -106 40.5h-187v-286h187q66 0 106.5 39.5
t40.5 102.5t-41 103.5z" />
    <glyph glyph-name="germandbls" unicode="&#xdf;" horiz-adv-x="578" 
d="M280.5 4q-38.5 16 -70.5 47q-8 8 -8 18t7 16.5t17 6.5q8 0 16 -5q55 -55 135 -55q62 0 95.5 28.5t33.5 69.5q0 29 -18 47t-44.5 28t-71.5 22q-53 13 -86 26.5t-56 39.5t-23 69q0 40 23 65t66 53q33 20 50 36.5t17 38.5q0 34 -33.5 54.5t-74.5 20.5q-51 0 -86.5 -33
t-35.5 -88v-486q0 -10 -7.5 -18t-18.5 -8q-10 0 -18 8t-8 18v486q0 47 21.5 85.5t61 60.5t91.5 22q66 0 113.5 -32.5t47.5 -85.5q0 -38 -21.5 -61t-62.5 -48q-37 -23 -55.5 -41.5t-18.5 -47.5q0 -25 16.5 -40.5t40.5 -24t69 -20.5q54 -13 89 -26.5t59.5 -42t24.5 -76.5
q0 -38 -19.5 -70.5t-60 -52.5t-100.5 -20q-58 0 -96.5 16z" />
    <glyph glyph-name="agrave" unicode="&#xe0;" horiz-adv-x="521" 
d="M391 456q49 -39 49 -116v-317q0 -10 -7.5 -18t-18.5 -8q-10 0 -18 8t-8 18v36q-61 -71 -164 -71q-43 0 -82 19t-63 55.5t-24 86.5t24 86.5t63 55t82 18.5q102 0 164 -69v98q0 52 -37 81.5t-93 29.5q-40 0 -73 -13.5t-63 -43.5q-7 -5 -15 -5q-10 0 -16.5 6.5t-6.5 16.5
q0 11 8 17q36 35 77 51.5t95 16.5q78 0 127 -39zM325 46q38 17 63 49v106q-25 33 -63.5 50t-82.5 17q-59 0 -95.5 -34t-36.5 -86t36.5 -85.5t95.5 -33.5q45 0 83 17zM115 688q-7 5 -7 15q0 8 6 14t14 6q7 0 13 -6l127 -118q5 -5 5 -11t-4.5 -10.5t-10.5 -4.5t-10 4z" />
    <glyph glyph-name="aacute" unicode="&#xe1;" horiz-adv-x="521" 
d="M391 456q49 -39 49 -116v-317q0 -10 -7.5 -18t-18.5 -8q-10 0 -18 8t-8 18v36q-61 -71 -164 -71q-43 0 -82 19t-63 55.5t-24 86.5t24 86.5t63 55t82 18.5q102 0 164 -69v98q0 52 -37 81.5t-93 29.5q-40 0 -73 -13.5t-63 -43.5q-7 -5 -15 -5q-10 0 -16.5 6.5t-6.5 16.5
q0 11 8 17q36 35 77 51.5t95 16.5q78 0 127 -39zM325 46q38 17 63 49v106q-25 33 -63.5 50t-82.5 17q-59 0 -95.5 -34t-36.5 -86t36.5 -85.5t95.5 -33.5q45 0 83 17zM273 573q-6 0 -10.5 4.5t-4.5 10.5q0 4 5 11l127 118q6 6 14 6t14 -6t6 -14q0 -10 -7 -15l-133 -111
q-4 -4 -11 -4z" />
    <glyph glyph-name="acircumflex" unicode="&#xe2;" horiz-adv-x="521" 
d="M391 456q49 -39 49 -116v-317q0 -10 -7.5 -18t-18.5 -8q-10 0 -18 8t-8 18v36q-61 -71 -164 -71q-43 0 -82 19t-63 55.5t-24 86.5t24 86.5t63 55t82 18.5q102 0 164 -69v98q0 52 -37 81.5t-93 29.5q-40 0 -73 -13.5t-63 -43.5q-7 -5 -15 -5q-10 0 -16.5 6.5t-6.5 16.5
q0 11 8 17q36 35 77 51.5t95 16.5q78 0 127 -39zM325 46q38 17 63 49v106q-25 33 -63.5 50t-82.5 17q-59 0 -95.5 -34t-36.5 -86t36.5 -85.5t95.5 -33.5q45 0 83 17zM267 689l-86 -114q-6 -6 -12 -6q-7 0 -12 5t-5 12q0 3 2 9l80 116q4 7 12 11t16 4h9q8 0 16.5 -4t12.5 -11
l79 -116q3 -4 3 -9q0 -7 -5.5 -12t-12.5 -5q-6 0 -12 6z" />
    <glyph glyph-name="atilde" unicode="&#xe3;" horiz-adv-x="521" 
d="M391 456q49 -39 49 -116v-317q0 -10 -7.5 -18t-18.5 -8q-10 0 -18 8t-8 18v36q-61 -71 -164 -71q-43 0 -82 19t-63 55.5t-24 86.5t24 86.5t63 55t82 18.5q102 0 164 -69v98q0 52 -37 81.5t-93 29.5q-40 0 -73 -13.5t-63 -43.5q-7 -5 -15 -5q-10 0 -16.5 6.5t-6.5 16.5
q0 11 8 17q36 35 77 51.5t95 16.5q78 0 127 -39zM325 46q38 17 63 49v106q-25 33 -63.5 50t-82.5 17q-59 0 -95.5 -34t-36.5 -86t36.5 -85.5t95.5 -33.5q45 0 83 17zM284 588.5q-15 14.5 -33 43.5q-13 22 -23.5 33.5t-26.5 11.5q-22 0 -36.5 -21t-16.5 -63q-1 -7 -6 -11.5
t-12 -4.5t-12.5 6t-4.5 13q4 53 28 85.5t64 32.5q27 0 42.5 -14.5t32.5 -43.5q14 -23 24 -33.5t26 -10.5q22 0 36.5 20.5t16.5 62.5q1 7 6 11.5t12 4.5t12.5 -5.5t4.5 -13.5q-4 -53 -28 -85.5t-63 -32.5q-28 0 -43 14.5z" />
    <glyph glyph-name="adieresis" unicode="&#xe4;" horiz-adv-x="521" 
d="M391 456q49 -39 49 -116v-317q0 -10 -7.5 -18t-18.5 -8q-10 0 -18 8t-8 18v36q-61 -71 -164 -71q-43 0 -82 19t-63 55.5t-24 86.5t24 86.5t63 55t82 18.5q102 0 164 -69v98q0 52 -37 81.5t-93 29.5q-40 0 -73 -13.5t-63 -43.5q-7 -5 -15 -5q-10 0 -16.5 6.5t-6.5 16.5
q0 11 8 17q36 35 77 51.5t95 16.5q78 0 127 -39zM325 46q38 17 63 49v106q-25 33 -63.5 50t-82.5 17q-59 0 -95.5 -34t-36.5 -86t36.5 -85.5t95.5 -33.5q45 0 83 17zM137 599q-11 11 -11 27q0 15 11 26t26 11t26 -11t11 -26q0 -16 -11 -27t-26 -11t-26 11zM341 599
q-11 11 -11 27q0 15 11 26t26 11t26.5 -11t11.5 -26q0 -16 -11.5 -27t-26.5 -11t-26 11z" />
    <glyph glyph-name="aring" unicode="&#xe5;" horiz-adv-x="521" 
d="M391 456q49 -39 49 -116v-317q0 -10 -7.5 -18t-18.5 -8q-10 0 -18 8t-8 18v36q-61 -71 -164 -71q-43 0 -82 19t-63 55.5t-24 86.5t24 86.5t63 55t82 18.5q102 0 164 -69v98q0 52 -37 81.5t-93 29.5q-40 0 -73 -13.5t-63 -43.5q-7 -5 -15 -5q-10 0 -16.5 6.5t-6.5 16.5
q0 11 8 17q36 35 77 51.5t95 16.5q78 0 127 -39zM325 46q38 17 63 49v106q-25 33 -63.5 50t-82.5 17q-59 0 -95.5 -34t-36.5 -86t36.5 -85.5t95.5 -33.5q45 0 83 17zM198 731.5q28 28.5 68 28.5q39 0 66.5 -28.5t27.5 -67.5q0 -40 -27.5 -68t-66.5 -28q-40 0 -68 28t-28 68
q0 39 28 67.5zM310.5 709q-18.5 19 -44.5 19t-45 -19t-19 -45t19 -45t45 -19t44.5 19t18.5 45t-18.5 45z" />
    <glyph glyph-name="ae" unicode="&#xe6;" horiz-adv-x="897" 
d="M489.5 128q21.5 -44 60 -69.5t89.5 -25.5q76 0 135 54q5 5 13 5q9 0 15.5 -6.5t6.5 -15.5q0 -7 -8 -17q-70 -65 -162 -65q-67 0 -118 33t-78 96q-23 -59 -75.5 -94t-119.5 -35q-84 0 -138.5 43t-54.5 118q0 50 24.5 86.5t65.5 55t89 18.5q111 0 179 -67v96q0 53 -38.5 82
t-102.5 29q-45 0 -81 -13.5t-69 -44.5q-7 -5 -14 -5q-10 0 -17 7t-7 17q0 11 9 18q73 67 187 67q63 0 111.5 -27.5t58.5 -87.5q26 51 72.5 83t107.5 32q67 0 115.5 -33.5t73.5 -88.5t25 -119q0 -14 -8 -21.5t-23 -7.5h-348q3 -53 24.5 -97zM773.5 352.5q-17.5 42.5 -54.5 70
t-91 27.5q-50 0 -86.5 -27.5t-55.5 -70t-21 -86.5h326q0 44 -17.5 86.5zM344 250.5q-42 17.5 -90 17.5q-65 0 -104.5 -33t-39.5 -84q0 -52 39.5 -85t104.5 -33q46 0 82.5 21.5t56.5 56t20 73.5v16q-27 33 -69 50.5z" />
    <glyph glyph-name="ccedilla" unicode="&#xe7;" horiz-adv-x="494" 
d="M444.5 88.5q6.5 -6.5 6.5 -17.5t-7 -18q-29 -30 -62 -46t-78 -19l-17 -45q15 12 37 12q29 0 47.5 -18t18.5 -48q0 -35 -29 -56.5t-72 -21.5q-25 0 -48 6.5t-40 16.5q-9 4 -9 15q0 8 5 13t12 5t11 -3q28 -20 68 -20q28 0 46.5 12t18.5 33q0 39 -41 39q-20 0 -34 -12
q-6 -4 -12 -4q-8 0 -13.5 5t-5.5 13q0 3 2 9l18 50q-64 5 -112.5 39.5t-75 90.5t-26.5 123q0 70 29.5 128t83 91.5t122.5 33.5q52 0 88.5 -16t67.5 -49q7 -9 7 -17q0 -10 -6.5 -17t-17.5 -7q-10 0 -16 7q-26 28 -55 40t-65 12q-55 0 -96.5 -27t-63.5 -74t-22 -105t22 -105.5
t63.5 -74.5t96.5 -27q36 0 65 12.5t54 40.5q7 7 17 7q11 0 17.5 -6.5z" />
    <glyph glyph-name="egrave" unicode="&#xe8;" horiz-adv-x="567" 
d="M83.5 369q30.5 58 83.5 92t119 34q71 0 122.5 -33.5t78.5 -89t27 -118.5q0 -14 -8 -21.5t-23 -7.5h-373q3 -53 26.5 -97t65.5 -69.5t97 -25.5q84 0 145 55q4 4 13 4t15 -6t6 -16q0 -9 -8 -17q-37 -32 -79.5 -48.5t-95.5 -16.5q-70 0 -125 32.5t-86 90t-31 131.5
q0 69 30.5 127zM192 422.5q-39 -27.5 -59.5 -69.5t-22.5 -87h351q-1 44 -20.5 86.5t-59 70t-96.5 27.5q-54 0 -93 -27.5zM135 688q-7 5 -7 15q0 8 6 14t14 6q7 0 13 -6l127 -118q5 -5 5 -11t-4.5 -10.5t-10.5 -4.5t-10 4z" />
    <glyph glyph-name="eacute" unicode="&#xe9;" horiz-adv-x="567" 
d="M83.5 369q30.5 58 83.5 92t119 34q71 0 122.5 -33.5t78.5 -89t27 -118.5q0 -14 -8 -21.5t-23 -7.5h-373q3 -53 26.5 -97t65.5 -69.5t97 -25.5q84 0 145 55q4 4 13 4t15 -6t6 -16q0 -9 -8 -17q-37 -32 -79.5 -48.5t-95.5 -16.5q-70 0 -125 32.5t-86 90t-31 131.5
q0 69 30.5 127zM192 422.5q-39 -27.5 -59.5 -69.5t-22.5 -87h351q-1 44 -20.5 86.5t-59 70t-96.5 27.5q-54 0 -93 -27.5zM293 573q-6 0 -10.5 4.5t-4.5 10.5q0 4 5 11l127 118q6 6 14 6t14 -6t6 -14q0 -10 -7 -15l-133 -111q-4 -4 -11 -4z" />
    <glyph glyph-name="ecircumflex" unicode="&#xea;" horiz-adv-x="567" 
d="M83.5 369q30.5 58 83.5 92t119 34q71 0 122.5 -33.5t78.5 -89t27 -118.5q0 -14 -8 -21.5t-23 -7.5h-373q3 -53 26.5 -97t65.5 -69.5t97 -25.5q84 0 145 55q4 4 13 4t15 -6t6 -16q0 -9 -8 -17q-37 -32 -79.5 -48.5t-95.5 -16.5q-70 0 -125 32.5t-86 90t-31 131.5
q0 69 30.5 127zM192 422.5q-39 -27.5 -59.5 -69.5t-22.5 -87h351q-1 44 -20.5 86.5t-59 70t-96.5 27.5q-54 0 -93 -27.5zM287 689l-86 -114q-6 -6 -12 -6q-7 0 -12 5t-5 12q0 3 2 9l80 116q4 7 12 11t16 4h9q8 0 16.5 -4t12.5 -11l79 -116q3 -4 3 -9q0 -7 -5.5 -12t-12.5 -5
q-6 0 -12 6z" />
    <glyph glyph-name="edieresis" unicode="&#xeb;" horiz-adv-x="567" 
d="M83.5 369q30.5 58 83.5 92t119 34q71 0 122.5 -33.5t78.5 -89t27 -118.5q0 -14 -8 -21.5t-23 -7.5h-373q3 -53 26.5 -97t65.5 -69.5t97 -25.5q84 0 145 55q4 4 13 4t15 -6t6 -16q0 -9 -8 -17q-37 -32 -79.5 -48.5t-95.5 -16.5q-70 0 -125 32.5t-86 90t-31 131.5
q0 69 30.5 127zM192 422.5q-39 -27.5 -59.5 -69.5t-22.5 -87h351q-1 44 -20.5 86.5t-59 70t-96.5 27.5q-54 0 -93 -27.5zM157 599q-11 11 -11 27q0 15 11 26t26 11t26 -11t11 -26q0 -16 -11 -27t-26 -11t-26 11zM361 599q-11 11 -11 27q0 15 11 26t26 11t26.5 -11t11.5 -26
q0 -16 -11.5 -27t-26.5 -11t-26 11z" />
    <glyph glyph-name="igrave" unicode="&#xec;" horiz-adv-x="214" 
d="M89 5q-8 8 -8 18v437q0 11 8 18.5t18 7.5q11 0 18.5 -7.5t7.5 -18.5v-437q0 -10 -7.5 -18t-18.5 -8q-10 0 -18 8zM-43 688q-7 5 -7 15q0 8 6 14t14 6q7 0 13 -6l127 -118q5 -5 5 -11t-4.5 -10.5t-10.5 -4.5t-10 4z" />
    <glyph glyph-name="iacute" unicode="&#xed;" horiz-adv-x="214" 
d="M89 5q-8 8 -8 18v437q0 11 8 18.5t18 7.5q11 0 18.5 -7.5t7.5 -18.5v-437q0 -10 -7.5 -18t-18.5 -8q-10 0 -18 8zM115 573q-6 0 -10.5 4.5t-4.5 10.5q0 4 5 11l127 118q6 6 14 6t14 -6t6 -14q0 -10 -7 -15l-133 -111q-4 -4 -11 -4z" />
    <glyph glyph-name="icircumflex" unicode="&#xee;" horiz-adv-x="214" 
d="M89 5q-8 8 -8 18v437q0 11 8 18.5t18 7.5q11 0 18.5 -7.5t7.5 -18.5v-437q0 -10 -7.5 -18t-18.5 -8q-10 0 -18 8zM108 689l-86 -114q-6 -6 -12 -6q-7 0 -12 5t-5 12q0 3 2 9l80 116q4 7 12 11t16 4h9q8 0 16.5 -4t12.5 -11l79 -116q3 -4 3 -9q0 -7 -5.5 -12t-12.5 -5
q-6 0 -12 6z" />
    <glyph glyph-name="idieresis" unicode="&#xef;" horiz-adv-x="214" 
d="M89 5q-8 8 -8 18v437q0 11 8 18.5t18 7.5q11 0 18.5 -7.5t7.5 -18.5v-437q0 -10 -7.5 -18t-18.5 -8q-10 0 -18 8zM-21 599q-11 11 -11 27q0 15 11 26t26 11t26 -11t11 -26q0 -16 -11 -27t-26 -11t-26 11zM183 599q-11 11 -11 27q0 15 11 26t26 11t26.5 -11t11.5 -26
q0 -16 -11.5 -27t-26.5 -11t-26 11z" />
    <glyph glyph-name="eth" unicode="&#xf0;" 
d="M518 244q0 -73 -28.5 -131t-81.5 -91.5t-123 -33.5q-69 0 -121.5 33t-81.5 90t-29 127t28 127t79 89.5t116 32.5q47 0 85.5 -20.5t71.5 -66.5q-54 91 -161 173l-127 -57q-3 -1 -8 -1q-8 0 -13 5t-5 13q0 12 10 17l108 48q-38 26 -59 39q-13 9 -13 23q0 11 8 18.5t19 7.5
q8 0 14 -3q46 -29 88 -61l94 42q3 2 8 2q7 0 12.5 -5.5t5.5 -12.5q0 -14 -11 -17l-77 -34q192 -162 192 -353zM380 63q40 28 61 74.5t21 100.5t-21 100t-61 74t-95 28q-54 0 -94 -28t-61 -74.5t-21 -99.5q0 -54 21 -100.5t61 -74.5t94 -28q55 0 95 28z" />
    <glyph glyph-name="ntilde" unicode="&#xf1;" horiz-adv-x="540" 
d="M459 338v-315q0 -10 -7.5 -18t-18.5 -8q-10 0 -18 8t-8 18v304q0 66 -30 93.5t-87 27.5q-45 0 -89 -24t-68 -59v-342q0 -10 -7.5 -18t-18.5 -8q-10 0 -18 8t-8 18v437q0 11 8 18.5t18 7.5q11 0 18.5 -7.5t7.5 -18.5v-50q29 34 77 59.5t97 25.5q152 0 152 -157zM289 588.5
q-15 14.5 -33 43.5q-13 22 -23.5 33.5t-26.5 11.5q-22 0 -36.5 -21t-16.5 -63q-1 -7 -6 -11.5t-12 -4.5t-12.5 6t-4.5 13q4 53 28 85.5t64 32.5q27 0 42.5 -14.5t32.5 -43.5q14 -23 24 -33.5t26 -10.5q22 0 36.5 20.5t16.5 62.5q1 7 6 11.5t12 4.5t12.5 -5.5t4.5 -13.5
q-4 -53 -28 -85.5t-63 -32.5q-28 0 -43 14.5z" />
    <glyph glyph-name="ograve" unicode="&#xf2;" 
d="M163.5 21.5q-52.5 33.5 -81.5 91.5t-29 129t29 128.5t81.5 91t121.5 33.5q70 0 123 -33.5t81.5 -91t28.5 -128.5t-28.5 -129t-81.5 -91.5t-123 -33.5q-69 0 -121.5 33.5zM380 63.5q40 28.5 61 76t21 102.5t-21 102t-61 75.5t-95 28.5q-54 0 -94 -28.5t-61 -75.5t-21 -102
t21 -102.5t61 -76t94 -28.5q55 0 95 28.5zM135 688q-7 5 -7 15q0 8 6 14t14 6q7 0 13 -6l127 -118q5 -5 5 -11t-4.5 -10.5t-10.5 -4.5t-10 4z" />
    <glyph glyph-name="oacute" unicode="&#xf3;" 
d="M163.5 21.5q-52.5 33.5 -81.5 91.5t-29 129t29 128.5t81.5 91t121.5 33.5q70 0 123 -33.5t81.5 -91t28.5 -128.5t-28.5 -129t-81.5 -91.5t-123 -33.5q-69 0 -121.5 33.5zM380 63.5q40 28.5 61 76t21 102.5t-21 102t-61 75.5t-95 28.5q-54 0 -94 -28.5t-61 -75.5t-21 -102
t21 -102.5t61 -76t94 -28.5q55 0 95 28.5zM293 573q-6 0 -10.5 4.5t-4.5 10.5q0 4 5 11l127 118q6 6 14 6t14 -6t6 -14q0 -10 -7 -15l-133 -111q-4 -4 -11 -4z" />
    <glyph glyph-name="ocircumflex" unicode="&#xf4;" 
d="M163.5 21.5q-52.5 33.5 -81.5 91.5t-29 129t29 128.5t81.5 91t121.5 33.5q70 0 123 -33.5t81.5 -91t28.5 -128.5t-28.5 -129t-81.5 -91.5t-123 -33.5q-69 0 -121.5 33.5zM380 63.5q40 28.5 61 76t21 102.5t-21 102t-61 75.5t-95 28.5q-54 0 -94 -28.5t-61 -75.5t-21 -102
t21 -102.5t61 -76t94 -28.5q55 0 95 28.5zM287 689l-86 -114q-6 -6 -12 -6q-7 0 -12 5t-5 12q0 3 2 9l80 116q4 7 12 11t16 4h9q8 0 16.5 -4t12.5 -11l79 -116q3 -4 3 -9q0 -7 -5.5 -12t-12.5 -5q-6 0 -12 6z" />
    <glyph glyph-name="otilde" unicode="&#xf5;" 
d="M163.5 21.5q-52.5 33.5 -81.5 91.5t-29 129t29 128.5t81.5 91t121.5 33.5q70 0 123 -33.5t81.5 -91t28.5 -128.5t-28.5 -129t-81.5 -91.5t-123 -33.5q-69 0 -121.5 33.5zM380 63.5q40 28.5 61 76t21 102.5t-21 102t-61 75.5t-95 28.5q-54 0 -94 -28.5t-61 -75.5t-21 -102
t21 -102.5t61 -76t94 -28.5q55 0 95 28.5zM304 588.5q-15 14.5 -33 43.5q-13 22 -23.5 33.5t-26.5 11.5q-22 0 -36.5 -21t-16.5 -63q-1 -7 -6 -11.5t-12 -4.5t-12.5 6t-4.5 13q4 53 28 85.5t64 32.5q27 0 42.5 -14.5t32.5 -43.5q14 -23 24 -33.5t26 -10.5q22 0 36.5 20.5
t16.5 62.5q1 7 6 11.5t12 4.5t12.5 -5.5t4.5 -13.5q-4 -53 -28 -85.5t-63 -32.5q-28 0 -43 14.5z" />
    <glyph glyph-name="odieresis" unicode="&#xf6;" 
d="M163.5 21.5q-52.5 33.5 -81.5 91.5t-29 129t29 128.5t81.5 91t121.5 33.5q70 0 123 -33.5t81.5 -91t28.5 -128.5t-28.5 -129t-81.5 -91.5t-123 -33.5q-69 0 -121.5 33.5zM380 63.5q40 28.5 61 76t21 102.5t-21 102t-61 75.5t-95 28.5q-54 0 -94 -28.5t-61 -75.5t-21 -102
t21 -102.5t61 -76t94 -28.5q55 0 95 28.5zM157 599q-11 11 -11 27q0 15 11 26t26 11t26 -11t11 -26q0 -16 -11 -27t-26 -11t-26 11zM361 599q-11 11 -11 27q0 15 11 26t26 11t26.5 -11t11.5 -26q0 -16 -11.5 -27t-26.5 -11t-26 11z" />
    <glyph glyph-name="divide" unicode="&#xf7;" horiz-adv-x="511" 
d="M228 503q-12 12 -12 28t11.5 27.5t28.5 11.5q16 0 27.5 -11.5t11.5 -27.5t-11.5 -28t-27.5 -12t-28 12zM32.5 322.5q-6.5 6.5 -6.5 14.5t6.5 14.5t14.5 6.5h418q8 0 14 -6.5t6 -14.5t-6 -14.5t-14 -6.5h-418q-8 0 -14.5 6.5zM228 110.5q-12 11.5 -12 27.5q0 17 12 28.5
t28 11.5t27.5 -12t11.5 -28t-11.5 -27.5t-27.5 -11.5t-28 11.5z" />
    <glyph glyph-name="oslash" unicode="&#xf8;" 
d="M499.5 347q18.5 -49 18.5 -105q0 -71 -28.5 -129t-81.5 -91.5t-123 -33.5q-82 0 -140 47l-24 -31q-5 -7 -14 -7q-7 0 -12 5t-5 12t4 11l26 33q-32 35 -49.5 82.5t-17.5 101.5q0 71 29 128.5t81.5 91t121.5 33.5q76 0 136 -42l20 26q5 7 14 7q7 0 12 -5.5t5 -12.5
q0 -3 -1.5 -6t-1.5 -4l-22 -28q34 -34 52.5 -83zM120 166q11 -37 32 -65l238 311q-46 36 -105 36q-54 0 -94 -28.5t-61 -75.5t-21 -102q0 -39 11 -76zM380 63.5q40 28.5 61 76t21 102.5q0 41 -12 79t-35 66l-239 -311q44 -41 109 -41q55 0 95 28.5z" />
    <glyph glyph-name="ugrave" unicode="&#xf9;" horiz-adv-x="540" 
d="M451.5 478.5q7.5 -7.5 7.5 -18.5v-437q0 -10 -7.5 -18t-18.5 -8q-10 0 -18 8t-8 18v48q-32 -36 -78 -59.5t-96 -23.5q-76 0 -114 37.5t-38 117.5v317q0 11 8 18.5t18 7.5q11 0 18.5 -7.5t7.5 -18.5v-305q0 -67 30 -93.5t87 -26.5q45 0 88.5 23t68.5 57v345q0 11 8 18.5
t18 7.5q11 0 18.5 -7.5zM120 688q-7 5 -7 15q0 8 6 14t14 6q7 0 13 -6l127 -118q5 -5 5 -11t-4.5 -10.5t-10.5 -4.5t-10 4z" />
    <glyph glyph-name="uacute" unicode="&#xfa;" horiz-adv-x="540" 
d="M451.5 478.5q7.5 -7.5 7.5 -18.5v-437q0 -10 -7.5 -18t-18.5 -8q-10 0 -18 8t-8 18v48q-32 -36 -78 -59.5t-96 -23.5q-76 0 -114 37.5t-38 117.5v317q0 11 8 18.5t18 7.5q11 0 18.5 -7.5t7.5 -18.5v-305q0 -67 30 -93.5t87 -26.5q45 0 88.5 23t68.5 57v345q0 11 8 18.5
t18 7.5q11 0 18.5 -7.5zM278 573q-6 0 -10.5 4.5t-4.5 10.5q0 4 5 11l127 118q6 6 14 6t14 -6t6 -14q0 -10 -7 -15l-133 -111q-4 -4 -11 -4z" />
    <glyph glyph-name="ucircumflex" unicode="&#xfb;" horiz-adv-x="540" 
d="M451.5 478.5q7.5 -7.5 7.5 -18.5v-437q0 -10 -7.5 -18t-18.5 -8q-10 0 -18 8t-8 18v48q-32 -36 -78 -59.5t-96 -23.5q-76 0 -114 37.5t-38 117.5v317q0 11 8 18.5t18 7.5q11 0 18.5 -7.5t7.5 -18.5v-305q0 -67 30 -93.5t87 -26.5q45 0 88.5 23t68.5 57v345q0 11 8 18.5
t18 7.5q11 0 18.5 -7.5zM272 689l-86 -114q-6 -6 -12 -6q-7 0 -12 5t-5 12q0 3 2 9l80 116q4 7 12 11t16 4h9q8 0 16.5 -4t12.5 -11l79 -116q3 -4 3 -9q0 -7 -5.5 -12t-12.5 -5q-6 0 -12 6z" />
    <glyph glyph-name="udieresis" unicode="&#xfc;" horiz-adv-x="540" 
d="M451.5 478.5q7.5 -7.5 7.5 -18.5v-437q0 -10 -7.5 -18t-18.5 -8q-10 0 -18 8t-8 18v48q-32 -36 -78 -59.5t-96 -23.5q-76 0 -114 37.5t-38 117.5v317q0 11 8 18.5t18 7.5q11 0 18.5 -7.5t7.5 -18.5v-305q0 -67 30 -93.5t87 -26.5q45 0 88.5 23t68.5 57v345q0 11 8 18.5
t18 7.5q11 0 18.5 -7.5zM142 599q-11 11 -11 27q0 15 11 26t26 11t26 -11t11 -26q0 -16 -11 -27t-26 -11t-26 11zM346 599q-11 11 -11 27q0 15 11 26t26 11t26.5 -11t11.5 -26q0 -16 -11.5 -27t-26.5 -11t-26 11z" />
    <glyph glyph-name="yacute" unicode="&#xfd;" horiz-adv-x="481" 
d="M57.5 -153q7.5 7 17.5 7q3 0 10 -1.5t15 -1.5q25 0 42 13t31 46l38 86l-189 451q-2 5 -2 12q0 11 7.5 19t18.5 8q8 0 15 -4.5t10 -12.5l170 -408l169 408q2 7 9 12t15 5q12 0 19.5 -8t7.5 -19q0 -4 -3 -13l-234 -552q-37 -90 -124 -90q-9 0 -27 2q-10 1 -16.5 8t-6.5 16
q0 10 7.5 17zM249 573q-6 0 -10.5 4.5t-4.5 10.5q0 4 5 11l127 118q6 6 14 6t14 -6t6 -14q0 -10 -7 -15l-133 -111q-4 -4 -11 -4z" />
    <glyph glyph-name="thorn" unicode="&#xfe;" horiz-adv-x="570" 
d="M133 -161q0 -11 -7.5 -18.5t-18.5 -7.5q-10 0 -18 7.5t-8 18.5v805q0 11 8 18.5t18 7.5q11 0 18.5 -7.5t7.5 -18.5v-237q27 39 71.5 63.5t96.5 24.5q64 0 113 -31t76 -88.5t27 -133.5t-27 -133.5t-76 -89t-113 -31.5q-50 0 -94 24t-74 66v-239zM416 390q-45 58 -124 58
q-49 0 -93 -25t-66 -61v-239q22 -36 66.5 -62t92.5 -26q79 0 124 58t45 149q0 90 -45 148z" />
    <glyph glyph-name="ydieresis" unicode="&#xff;" horiz-adv-x="481" 
d="M57.5 -153q7.5 7 17.5 7q3 0 10 -1.5t15 -1.5q25 0 42 13t31 46l38 86l-189 451q-2 5 -2 12q0 11 7.5 19t18.5 8q8 0 15 -4.5t10 -12.5l170 -408l169 408q2 7 9 12t15 5q12 0 19.5 -8t7.5 -19q0 -4 -3 -13l-234 -552q-37 -90 -124 -90q-9 0 -27 2q-10 1 -16.5 8t-6.5 16
q0 10 7.5 17zM113 599q-11 11 -11 27q0 15 11 26t26 11t26 -11t11 -26q0 -16 -11 -27t-26 -11t-26 11zM317 599q-11 11 -11 27q0 15 11 26t26 11t26.5 -11t11.5 -26q0 -16 -11.5 -27t-26.5 -11t-26 11z" />
    <glyph glyph-name="Amacron" unicode="&#x100;" horiz-adv-x="647" 
d="M619 27q0 -12 -8.5 -21t-21.5 -9q-10 0 -17.5 5.5t-10.5 13.5l-59 148h-357l-59 -148q-3 -8 -11 -13.5t-17 -5.5q-13 0 -21.5 9t-8.5 21q0 5 3 12l246 600q5 14 18 22.5t28 8.5t28 -8.5t19 -22.5l246 -600q3 -9 3 -12zM166 216h315l-158 395zM177.5 749.5
q-5.5 5.5 -5.5 12.5q0 8 5.5 13.5t13.5 5.5h263q8 0 13.5 -5.5t5.5 -13.5q0 -7 -5.5 -12.5t-13.5 -5.5h-263q-8 0 -13.5 5.5z" />
    <glyph glyph-name="amacron" unicode="&#x101;" horiz-adv-x="521" 
d="M391 456q49 -39 49 -116v-317q0 -10 -7.5 -18t-18.5 -8q-10 0 -18 8t-8 18v36q-61 -71 -164 -71q-43 0 -82 19t-63 55.5t-24 86.5t24 86.5t63 55t82 18.5q102 0 164 -69v98q0 52 -37 81.5t-93 29.5q-40 0 -73 -13.5t-63 -43.5q-7 -5 -15 -5q-10 0 -16.5 6.5t-6.5 16.5
q0 11 8 17q36 35 77 51.5t95 16.5q78 0 127 -39zM325 46q38 17 63 49v106q-25 33 -63.5 50t-82.5 17q-59 0 -95.5 -34t-36.5 -86t36.5 -85.5t95.5 -33.5q45 0 83 17zM119.5 602.5q-5.5 5.5 -5.5 12.5q0 8 5.5 13.5t13.5 5.5h263q8 0 13.5 -5.5t5.5 -13.5q0 -7 -5.5 -12.5
t-13.5 -5.5h-263q-8 0 -13.5 5.5z" />
    <glyph glyph-name="Abreve" unicode="&#x102;" horiz-adv-x="647" 
d="M619 27q0 -12 -8.5 -21t-21.5 -9q-10 0 -17.5 5.5t-10.5 13.5l-59 148h-357l-59 -148q-3 -8 -11 -13.5t-17 -5.5q-13 0 -21.5 9t-8.5 21q0 5 3 12l246 600q5 14 18 22.5t28 8.5t28 -8.5t19 -22.5l246 -600q3 -9 3 -12zM166 216h315l-158 395zM233 733.5
q-43 19.5 -76 55.5q-4 5 -4 13t5.5 13.5t13.5 5.5q9 0 14 -6q26 -30 61 -46.5t76 -16.5q82 0 137 63q3 6 14 6q7 0 13 -5.5t6 -13.5q0 -6 -5 -13q-32 -36 -74 -55.5t-91 -19.5q-47 0 -90 19.5z" />
    <glyph glyph-name="abreve" unicode="&#x103;" horiz-adv-x="521" 
d="M391 456q49 -39 49 -116v-317q0 -10 -7.5 -18t-18.5 -8q-10 0 -18 8t-8 18v36q-61 -71 -164 -71q-43 0 -82 19t-63 55.5t-24 86.5t24 86.5t63 55t82 18.5q102 0 164 -69v98q0 52 -37 81.5t-93 29.5q-40 0 -73 -13.5t-63 -43.5q-7 -5 -15 -5q-10 0 -16.5 6.5t-6.5 16.5
q0 11 8 17q36 35 77 51.5t95 16.5q78 0 127 -39zM325 46q38 17 63 49v106q-25 33 -63.5 50t-82.5 17q-59 0 -95.5 -34t-36.5 -86t36.5 -85.5t95.5 -33.5q45 0 83 17zM175 586.5q-43 19.5 -76 55.5q-4 5 -4 13t5.5 13.5t13.5 5.5q9 0 14 -6q26 -30 61 -46.5t76 -16.5
q82 0 137 63q3 6 14 6q7 0 13 -5.5t6 -13.5q0 -6 -5 -13q-32 -36 -74 -55.5t-91 -19.5q-47 0 -90 19.5z" />
    <glyph glyph-name="Aogonek" unicode="&#x104;" horiz-adv-x="647" 
d="M618.5 -144.5q5.5 -5.5 5.5 -13.5q0 -13 -11 -18q-24 -10 -48 -10q-38 0 -65 19.5t-27 53.5q0 33 28 62.5t73 51.5q-10 5 -13 15l-59 148h-357l-59 -148q-3 -8 -11 -13.5t-17 -5.5q-13 0 -21.5 9t-8.5 21q0 5 3 12l246 600q5 14 18 22.5t28 8.5t28 -8.5t19 -22.5
l246 -600q3 -9 3 -12q0 -9 -5 -17q13 -2 3 -8q-44 -28 -67.5 -52t-23.5 -52q0 -20 12.5 -32t34.5 -12q12 0 20.5 3.5t11.5 3.5q8 0 13.5 -5.5zM166 216h315l-158 395z" />
    <glyph glyph-name="aogonek" unicode="&#x105;" horiz-adv-x="521" 
d="M440 23q0 -6 -4 -14q2 -1 1.5 -3t-4.5 -4q-44 -28 -67.5 -52t-23.5 -52q0 -20 12.5 -32t34.5 -12q12 0 20.5 3.5t11.5 3.5q8 0 13.5 -5.5t5.5 -13.5q0 -13 -11 -18q-24 -10 -48 -10q-38 0 -65 19.5t-27 53.5t30 64.5t78 52.5q-9 8 -9 19v36q-61 -71 -164 -71
q-43 0 -82 19t-63 55.5t-24 86.5t24 86.5t63 55t82 18.5q102 0 164 -69v98q0 52 -37 81.5t-93 29.5q-40 0 -73 -13.5t-63 -43.5q-7 -5 -15 -5q-10 0 -16.5 6.5t-6.5 16.5q0 11 8 17q36 35 77 51.5t95 16.5q78 0 127 -39t49 -116v-317zM325 46q38 17 63 49v106
q-25 33 -63.5 50t-82.5 17q-59 0 -95.5 -34t-36.5 -86t36.5 -85.5t95.5 -33.5q45 0 83 17z" />
    <glyph glyph-name="Cacute" unicode="&#x106;" horiz-adv-x="669" 
d="M224 31.5q-77 43.5 -121.5 122.5t-44.5 179t44.5 179t121.5 122.5t170 43.5q136 0 226 -95q7 -7 7 -19t-8 -20t-20 -8q-13 0 -21 9q-34 38 -82 59.5t-102 21.5q-77 0 -140 -37t-99.5 -104t-36.5 -152q0 -84 36.5 -151t99.5 -104.5t140 -37.5q54 0 102.5 21.5t82.5 60.5
q8 9 20 9t20.5 -8.5t8.5 -19.5q0 -13 -8 -19q-91 -96 -226 -96q-93 0 -170 43.5zM402 720q-6 0 -10.5 4.5t-4.5 10.5q0 4 5 11l127 118q6 6 14 6t14 -6t6 -14q0 -10 -7 -15l-133 -111q-4 -4 -11 -4z" />
    <glyph glyph-name="cacute" unicode="&#x107;" horiz-adv-x="494" 
d="M82.5 370q29.5 58 83 91.5t122.5 33.5q52 0 88.5 -16t67.5 -49q7 -9 7 -17q0 -10 -6.5 -17t-17.5 -7q-10 0 -16 7q-26 28 -55 40t-65 12q-55 0 -96.5 -27t-63.5 -74t-22 -105t22 -105.5t63.5 -74.5t96.5 -27q36 0 65 12.5t54 40.5q7 7 17 7q11 0 17.5 -6.5t6.5 -17.5
t-7 -18q-31 -32 -68 -48.5t-88 -16.5q-69 0 -122.5 33.5t-83 92t-29.5 128.5t29.5 128zM294 573q-6 0 -10.5 4.5t-4.5 10.5q0 4 5 11l127 118q6 6 14 6t14 -6t6 -14q0 -10 -7 -15l-133 -111q-4 -4 -11 -4z" />
    <glyph glyph-name="Ccircumflex" unicode="&#x108;" horiz-adv-x="669" 
d="M224 31.5q-77 43.5 -121.5 122.5t-44.5 179t44.5 179t121.5 122.5t170 43.5q136 0 226 -95q7 -7 7 -19t-8 -20t-20 -8q-13 0 -21 9q-34 38 -82 59.5t-102 21.5q-77 0 -140 -37t-99.5 -104t-36.5 -152q0 -84 36.5 -151t99.5 -104.5t140 -37.5q54 0 102.5 21.5t82.5 60.5
q8 9 20 9t20.5 -8.5t8.5 -19.5q0 -13 -8 -19q-91 -96 -226 -96q-93 0 -170 43.5zM396 836l-86 -114q-6 -6 -12 -6q-7 0 -12 5t-5 12q0 3 2 9l80 116q4 7 12 11t16 4h9q8 0 16.5 -4t12.5 -11l79 -116q3 -4 3 -9q0 -7 -5.5 -12t-12.5 -5q-6 0 -12 6z" />
    <glyph glyph-name="ccircumflex" unicode="&#x109;" horiz-adv-x="494" 
d="M82.5 370q29.5 58 83 91.5t122.5 33.5q52 0 88.5 -16t67.5 -49q7 -9 7 -17q0 -10 -6.5 -17t-17.5 -7q-10 0 -16 7q-26 28 -55 40t-65 12q-55 0 -96.5 -27t-63.5 -74t-22 -105t22 -105.5t63.5 -74.5t96.5 -27q36 0 65 12.5t54 40.5q7 7 17 7q11 0 17.5 -6.5t6.5 -17.5
t-7 -18q-31 -32 -68 -48.5t-88 -16.5q-69 0 -122.5 33.5t-83 92t-29.5 128.5t29.5 128zM288 689l-86 -114q-6 -6 -12 -6q-7 0 -12 5t-5 12q0 3 2 9l80 116q4 7 12 11t16 4h9q8 0 16.5 -4t12.5 -11l79 -116q3 -4 3 -9q0 -7 -5.5 -12t-12.5 -5q-6 0 -12 6z" />
    <glyph glyph-name="Cdotaccent" unicode="&#x10a;" horiz-adv-x="669" 
d="M224 31.5q-77 43.5 -121.5 122.5t-44.5 179t44.5 179t121.5 122.5t170 43.5q136 0 226 -95q7 -7 7 -19t-8 -20t-20 -8q-13 0 -21 9q-34 38 -82 59.5t-102 21.5q-77 0 -140 -37t-99.5 -104t-36.5 -152q0 -84 36.5 -151t99.5 -104.5t140 -37.5q54 0 102.5 21.5t82.5 60.5
q8 9 20 9t20.5 -8.5t8.5 -19.5q0 -13 -8 -19q-91 -96 -226 -96q-93 0 -170 43.5zM368 797q11 11 27 11q15 0 26 -11t11 -27t-11 -27t-26 -11q-16 0 -27 11t-11 27t11 27z" />
    <glyph glyph-name="cdotaccent" unicode="&#x10b;" horiz-adv-x="494" 
d="M82.5 370q29.5 58 83 91.5t122.5 33.5q52 0 88.5 -16t67.5 -49q7 -9 7 -17q0 -10 -6.5 -17t-17.5 -7q-10 0 -16 7q-26 28 -55 40t-65 12q-55 0 -96.5 -27t-63.5 -74t-22 -105t22 -105.5t63.5 -74.5t96.5 -27q36 0 65 12.5t54 40.5q7 7 17 7q11 0 17.5 -6.5t6.5 -17.5
t-7 -18q-31 -32 -68 -48.5t-88 -16.5q-69 0 -122.5 33.5t-83 92t-29.5 128.5t29.5 128zM260 650q11 11 27 11q15 0 26 -11t11 -27t-11 -27t-26 -11q-16 0 -27 11t-11 27t11 27z" />
    <glyph glyph-name="Ccaron" unicode="&#x10c;" horiz-adv-x="669" 
d="M224 31.5q-77 43.5 -121.5 122.5t-44.5 179t44.5 179t121.5 122.5t170 43.5q136 0 226 -95q7 -7 7 -19t-8 -20t-20 -8q-13 0 -21 9q-34 38 -82 59.5t-102 21.5q-77 0 -140 -37t-99.5 -104t-36.5 -152q0 -84 36.5 -151t99.5 -104.5t140 -37.5q54 0 102.5 21.5t82.5 60.5
q8 9 20 9t20.5 -8.5t8.5 -19.5q0 -13 -8 -19q-91 -96 -226 -96q-93 0 -170 43.5zM502.5 868q5.5 -5 5.5 -12q0 -5 -3 -8l-79 -116q-4 -7 -12.5 -11.5t-16.5 -4.5h-9q-9 0 -16.5 4.5t-11.5 11.5l-80 116q-2 4 -2 8q0 7 5 12t12 5t12 -6l86 -113l85 113q4 6 12 6q7 0 12.5 -5z
" />
    <glyph glyph-name="ccaron" unicode="&#x10d;" horiz-adv-x="494" 
d="M82.5 370q29.5 58 83 91.5t122.5 33.5q52 0 88.5 -16t67.5 -49q7 -9 7 -17q0 -10 -6.5 -17t-17.5 -7q-10 0 -16 7q-26 28 -55 40t-65 12q-55 0 -96.5 -27t-63.5 -74t-22 -105t22 -105.5t63.5 -74.5t96.5 -27q36 0 65 12.5t54 40.5q7 7 17 7q11 0 17.5 -6.5t6.5 -17.5
t-7 -18q-31 -32 -68 -48.5t-88 -16.5q-69 0 -122.5 33.5t-83 92t-29.5 128.5t29.5 128zM394.5 721q5.5 -5 5.5 -12q0 -5 -3 -8l-79 -116q-4 -7 -12.5 -11.5t-16.5 -4.5h-9q-9 0 -16.5 4.5t-11.5 11.5l-80 116q-2 4 -2 8q0 7 5 12t12 5t12 -6l86 -113l85 113q4 6 12 6
q7 0 12.5 -5z" />
    <glyph glyph-name="Dcaron" unicode="&#x10e;" horiz-adv-x="692" 
d="M91 8.5q-8 8.5 -8 22.5v605q0 31 31 31h182q101 0 177.5 -44.5t118 -121t41.5 -168.5q0 -93 -41.5 -169t-118 -120t-177.5 -44h-182q-15 0 -23 8.5zM296 52q86 0 148.5 37t95.5 101t33 143t-33 143t-95.5 101.5t-148.5 37.5h-156v-563h156zM457.5 868q5.5 -5 5.5 -12
q0 -5 -3 -8l-79 -116q-4 -7 -12.5 -11.5t-16.5 -4.5h-9q-9 0 -16.5 4.5t-11.5 11.5l-80 116q-2 4 -2 8q0 7 5 12t12 5t12 -6l86 -113l85 113q4 6 12 6q7 0 12.5 -5z" />
    <glyph glyph-name="dcaron" unicode="&#x10f;" horiz-adv-x="625" 
d="M482.5 662.5q7.5 -7.5 7.5 -18.5v-621q0 -10 -7.5 -18t-18.5 -8t-19 8t-8 18v53q-27 -39 -72 -63.5t-96 -24.5q-64 0 -113 31t-76 88.5t-27 133.5t27 133.5t76.5 89t112.5 31.5q50 0 94 -23.5t74 -65.5v238q0 10 8 18t19 8t18.5 -7.5zM371 60q44 25 66 61v239
q-22 37 -66 62.5t-93 25.5q-78 0 -123.5 -58.5t-45.5 -148.5t45.5 -148t123.5 -58q49 0 93 25zM545.5 498q-5.5 5 -5.5 12q0 8 9 15q18 17 29 38t12 40l-10 -1q-16 0 -26 10.5t-10 27.5q0 16 11 27.5t27 11.5q20 0 33.5 -16t13.5 -43q0 -35 -16.5 -67.5t-41.5 -53.5
q-6 -6 -13 -6t-12.5 5z" />
    <glyph glyph-name="Dcroat" unicode="&#x110;" horiz-adv-x="721" 
d="M503 622.5q77 -44.5 118.5 -121t41.5 -168.5q0 -93 -41.5 -169t-118.5 -120t-178 -44h-181q-15 0 -23.5 8.5t-8.5 22.5v276h-81q-9 0 -16 7t-7 17t7 16.5t16 6.5h81v282q0 15 8.5 23t23.5 8h181q101 0 178 -44.5zM473.5 89q62.5 37 95.5 101t33 143t-33 143t-95.5 101.5
t-148.5 37.5h-155v-261h159q9 0 16 -6.5t7 -16.5t-7 -17t-16 -7h-159v-255h155q86 0 148.5 37z" />
    <glyph glyph-name="dcroat" unicode="&#x111;" horiz-adv-x="572" 
d="M560.5 570.5q5.5 -5.5 5.5 -13.5t-5.5 -13.5t-13.5 -5.5h-57v-515q0 -10 -7.5 -18t-18.5 -8t-19 8t-8 18v53q-27 -39 -72 -63.5t-96 -24.5q-64 0 -113 31t-76 88.5t-27 133.5t27 133.5t76.5 89t112.5 31.5q50 0 94 -23.5t74 -65.5v132h-145q-8 0 -13.5 5.5t-5.5 12.5
q0 8 5.5 14t13.5 6h145v68q0 10 8 18t19 8t18.5 -7.5t7.5 -18.5v-68h57q8 0 13.5 -5.5zM371 60q44 25 66 61v239q-22 37 -66 62.5t-93 25.5q-78 0 -123.5 -58.5t-45.5 -148.5t45.5 -148t123.5 -58q49 0 93 25z" />
    <glyph glyph-name="Emacron" unicode="&#x112;" horiz-adv-x="564" 
d="M91 8.5q-8 8.5 -8 22.5v605q0 31 31 31h369q11 0 18.5 -7.5t7.5 -18.5q0 -10 -7.5 -18t-18.5 -8h-343v-247h336q11 0 18.5 -7.5t7.5 -18.5q0 -10 -7.5 -18t-18.5 -8h-336v-264h343q11 0 18.5 -7.5t7.5 -18.5q0 -10 -7.5 -18t-18.5 -8h-369q-15 0 -23 8.5zM153.5 749.5
q-5.5 5.5 -5.5 12.5q0 8 5.5 13.5t13.5 5.5h263q8 0 13.5 -5.5t5.5 -13.5q0 -7 -5.5 -12.5t-13.5 -5.5h-263q-8 0 -13.5 5.5z" />
    <glyph glyph-name="emacron" unicode="&#x113;" horiz-adv-x="567" 
d="M83.5 369q30.5 58 83.5 92t119 34q71 0 122.5 -33.5t78.5 -89t27 -118.5q0 -14 -8 -21.5t-23 -7.5h-373q3 -53 26.5 -97t65.5 -69.5t97 -25.5q84 0 145 55q4 4 13 4t15 -6t6 -16q0 -9 -8 -17q-37 -32 -79.5 -48.5t-95.5 -16.5q-70 0 -125 32.5t-86 90t-31 131.5
q0 69 30.5 127zM192 422.5q-39 -27.5 -59.5 -69.5t-22.5 -87h351q-1 44 -20.5 86.5t-59 70t-96.5 27.5q-54 0 -93 -27.5zM139.5 602.5q-5.5 5.5 -5.5 12.5q0 8 5.5 13.5t13.5 5.5h263q8 0 13.5 -5.5t5.5 -13.5q0 -7 -5.5 -12.5t-13.5 -5.5h-263q-8 0 -13.5 5.5z" />
    <glyph glyph-name="Ebreve" unicode="&#x114;" horiz-adv-x="564" 
d="M91 8.5q-8 8.5 -8 22.5v605q0 31 31 31h369q11 0 18.5 -7.5t7.5 -18.5q0 -10 -7.5 -18t-18.5 -8h-343v-247h336q11 0 18.5 -7.5t7.5 -18.5q0 -10 -7.5 -18t-18.5 -8h-336v-264h343q11 0 18.5 -7.5t7.5 -18.5q0 -10 -7.5 -18t-18.5 -8h-369q-15 0 -23 8.5zM209 733.5
q-43 19.5 -76 55.5q-4 5 -4 13t5.5 13.5t13.5 5.5q9 0 14 -6q26 -30 61 -46.5t76 -16.5q82 0 137 63q3 6 14 6q7 0 13 -5.5t6 -13.5q0 -6 -5 -13q-32 -36 -74 -55.5t-91 -19.5q-47 0 -90 19.5z" />
    <glyph glyph-name="ebreve" unicode="&#x115;" horiz-adv-x="567" 
d="M83.5 369q30.5 58 83.5 92t119 34q71 0 122.5 -33.5t78.5 -89t27 -118.5q0 -14 -8 -21.5t-23 -7.5h-373q3 -53 26.5 -97t65.5 -69.5t97 -25.5q84 0 145 55q4 4 13 4t15 -6t6 -16q0 -9 -8 -17q-37 -32 -79.5 -48.5t-95.5 -16.5q-70 0 -125 32.5t-86 90t-31 131.5
q0 69 30.5 127zM192 422.5q-39 -27.5 -59.5 -69.5t-22.5 -87h351q-1 44 -20.5 86.5t-59 70t-96.5 27.5q-54 0 -93 -27.5zM195 586.5q-43 19.5 -76 55.5q-4 5 -4 13t5.5 13.5t13.5 5.5q9 0 14 -6q26 -30 61 -46.5t76 -16.5q82 0 137 63q3 6 14 6q7 0 13 -5.5t6 -13.5
q0 -6 -5 -13q-32 -36 -74 -55.5t-91 -19.5q-47 0 -90 19.5z" />
    <glyph glyph-name="Edotaccent" unicode="&#x116;" horiz-adv-x="564" 
d="M91 8.5q-8 8.5 -8 22.5v605q0 31 31 31h369q11 0 18.5 -7.5t7.5 -18.5q0 -10 -7.5 -18t-18.5 -8h-343v-247h336q11 0 18.5 -7.5t7.5 -18.5q0 -10 -7.5 -18t-18.5 -8h-336v-264h343q11 0 18.5 -7.5t7.5 -18.5q0 -10 -7.5 -18t-18.5 -8h-369q-15 0 -23 8.5zM273 797
q11 11 27 11q15 0 26 -11t11 -27t-11 -27t-26 -11q-16 0 -27 11t-11 27t11 27z" />
    <glyph glyph-name="edotaccent" unicode="&#x117;" horiz-adv-x="567" 
d="M83.5 369q30.5 58 83.5 92t119 34q71 0 122.5 -33.5t78.5 -89t27 -118.5q0 -14 -8 -21.5t-23 -7.5h-373q3 -53 26.5 -97t65.5 -69.5t97 -25.5q84 0 145 55q4 4 13 4t15 -6t6 -16q0 -9 -8 -17q-37 -32 -79.5 -48.5t-95.5 -16.5q-70 0 -125 32.5t-86 90t-31 131.5
q0 69 30.5 127zM192 422.5q-39 -27.5 -59.5 -69.5t-22.5 -87h351q-1 44 -20.5 86.5t-59 70t-96.5 27.5q-54 0 -93 -27.5zM259 650q11 11 27 11q15 0 26 -11t11 -27t-11 -27t-26 -11q-16 0 -27 11t-11 27t11 27z" />
    <glyph glyph-name="Eogonek" unicode="&#x118;" horiz-adv-x="564" 
d="M501.5 44.5q7.5 -7.5 7.5 -18.5q0 -10 -7 -17q4 -3 -3 -7q-44 -28 -67.5 -52t-23.5 -52q0 -20 12.5 -32t34.5 -12q12 0 20.5 3.5t11.5 3.5q8 0 13.5 -5.5t5.5 -13.5q0 -13 -11 -18q-24 -10 -48 -10q-38 0 -65 19.5t-27 53.5q0 33 27.5 62t72.5 51h-341q-15 0 -23 8.5
t-8 22.5v605q0 31 31 31h369q11 0 18.5 -7.5t7.5 -18.5q0 -10 -7.5 -18t-18.5 -8h-343v-247h336q11 0 18.5 -7.5t7.5 -18.5q0 -10 -7.5 -18t-18.5 -8h-336v-264h343q11 0 18.5 -7.5z" />
    <glyph glyph-name="eogonek" unicode="&#x119;" horiz-adv-x="567" 
d="M170 20.5q-55 32.5 -86 90t-31 131.5q0 69 30.5 127t83.5 92t119 34q71 0 122.5 -33.5t78.5 -89t27 -118.5q0 -29 -35 -29h-369q3 -53 26.5 -97t65.5 -69.5t97 -25.5q84 0 145 55q4 4 12 4q10 0 16 -6t6 -16t-7 -16q-55 -51 -80 -87.5t-25 -65.5q0 -22 13 -34.5t34 -12.5
q11 0 23 5l5 1q8 0 14 -5.5t6 -14.5q0 -6 -3.5 -11t-9.5 -7q-19 -8 -43 -8q-37 0 -64.5 19.5t-27.5 53.5q0 31 20.5 61t52.5 55q-42 -15 -91 -15q-70 0 -125 32.5zM192 422.5q-39 -27.5 -59.5 -69.5t-22.5 -87h351q-1 44 -20.5 86.5t-59 70t-96.5 27.5q-54 0 -93 -27.5z" />
    <glyph glyph-name="Ecaron" unicode="&#x11a;" horiz-adv-x="564" 
d="M91 8.5q-8 8.5 -8 22.5v605q0 31 31 31h369q11 0 18.5 -7.5t7.5 -18.5q0 -10 -7.5 -18t-18.5 -8h-343v-247h336q11 0 18.5 -7.5t7.5 -18.5q0 -10 -7.5 -18t-18.5 -8h-336v-264h343q11 0 18.5 -7.5t7.5 -18.5q0 -10 -7.5 -18t-18.5 -8h-369q-15 0 -23 8.5zM407.5 868
q5.5 -5 5.5 -12q0 -5 -3 -8l-79 -116q-4 -7 -12.5 -11.5t-16.5 -4.5h-9q-9 0 -16.5 4.5t-11.5 11.5l-80 116q-2 4 -2 8q0 7 5 12t12 5t12 -6l86 -113l85 113q4 6 12 6q7 0 12.5 -5z" />
    <glyph glyph-name="ecaron" unicode="&#x11b;" horiz-adv-x="567" 
d="M83.5 369q30.5 58 83.5 92t119 34q71 0 122.5 -33.5t78.5 -89t27 -118.5q0 -14 -8 -21.5t-23 -7.5h-373q3 -53 26.5 -97t65.5 -69.5t97 -25.5q84 0 145 55q4 4 13 4t15 -6t6 -16q0 -9 -8 -17q-37 -32 -79.5 -48.5t-95.5 -16.5q-70 0 -125 32.5t-86 90t-31 131.5
q0 69 30.5 127zM192 422.5q-39 -27.5 -59.5 -69.5t-22.5 -87h351q-1 44 -20.5 86.5t-59 70t-96.5 27.5q-54 0 -93 -27.5zM393.5 721q5.5 -5 5.5 -12q0 -5 -3 -8l-79 -116q-4 -7 -12.5 -11.5t-16.5 -4.5h-9q-9 0 -16.5 4.5t-11.5 11.5l-80 116q-2 4 -2 8q0 7 5 12t12 5t12 -6
l86 -113l85 113q4 6 12 6q7 0 12.5 -5z" />
    <glyph glyph-name="Gcircumflex" unicode="&#x11c;" horiz-adv-x="711" 
d="M649 300v-179q0 -25 -16 -38q-45 -45 -106 -70.5t-131 -25.5q-93 0 -170.5 44t-122.5 122.5t-45 179.5t45 179.5t122.5 122t170.5 43.5q138 0 233 -93q7 -6 7 -18t-7.5 -19.5t-19.5 -7.5q-11 0 -18 7q-37 37 -88 58t-107 21q-78 0 -141.5 -37t-100 -104t-36.5 -152
q0 -84 36.5 -151.5t100 -105t141.5 -37.5q61 0 112 24t84 57v160h-230q-11 0 -18.5 7.5t-7.5 18.5q0 10 7.5 17.5t18.5 7.5h256q31 0 31 -31zM397 836l-86 -114q-6 -6 -12 -6q-7 0 -12 5t-5 12q0 3 2 9l80 116q4 7 12 11t16 4h9q8 0 16.5 -4t12.5 -11l79 -116q3 -4 3 -9
q0 -7 -5.5 -12t-12.5 -5q-6 0 -12 6z" />
    <glyph glyph-name="gcircumflex" unicode="&#x11d;" horiz-adv-x="570" 
d="M482.5 478.5q7.5 -7.5 7.5 -18.5v-455q0 -104 -60.5 -152.5t-157.5 -48.5q-58 0 -97.5 12.5t-76.5 46.5q-9 6 -9 19q0 10 7 17t17 7q9 0 15 -6q29 -27 63 -39t81 -12q72 0 118.5 38.5t46.5 116.5v75q-29 -39 -73.5 -64t-94.5 -25q-64 0 -113 31t-76 88t-27 133
q0 75 27 132.5t76 89t113 31.5q50 0 94 -23.5t74 -65.5v54q0 11 8 18.5t19 7.5t18.5 -7.5zM371 62.5q44 25.5 66 62.5v235q-22 37 -66 62.5t-93 25.5q-78 0 -123.5 -58t-45.5 -148t45.5 -147.5t123.5 -57.5q49 0 93 25.5zM289 689l-86 -114q-6 -6 -12 -6q-7 0 -12 5t-5 12
q0 3 2 9l80 116q4 7 12 11t16 4h9q8 0 16.5 -4t12.5 -11l79 -116q3 -4 3 -9q0 -7 -5.5 -12t-12.5 -5q-6 0 -12 6z" />
    <glyph glyph-name="Gbreve" unicode="&#x11e;" horiz-adv-x="711" 
d="M649 300v-179q0 -25 -16 -38q-45 -45 -106 -70.5t-131 -25.5q-93 0 -170.5 44t-122.5 122.5t-45 179.5t45 179.5t122.5 122t170.5 43.5q138 0 233 -93q7 -6 7 -18t-7.5 -19.5t-19.5 -7.5q-11 0 -18 7q-37 37 -88 58t-107 21q-78 0 -141.5 -37t-100 -104t-36.5 -152
q0 -84 36.5 -151.5t100 -105t141.5 -37.5q61 0 112 24t84 57v160h-230q-11 0 -18.5 7.5t-7.5 18.5q0 10 7.5 17.5t18.5 7.5h256q31 0 31 -31zM305 733.5q-43 19.5 -76 55.5q-4 5 -4 13t5.5 13.5t13.5 5.5q9 0 14 -6q26 -30 61 -46.5t76 -16.5q82 0 137 63q3 6 14 6
q7 0 13 -5.5t6 -13.5q0 -6 -5 -13q-32 -36 -74 -55.5t-91 -19.5q-47 0 -90 19.5z" />
    <glyph glyph-name="gbreve" unicode="&#x11f;" horiz-adv-x="570" 
d="M482.5 478.5q7.5 -7.5 7.5 -18.5v-455q0 -104 -60.5 -152.5t-157.5 -48.5q-58 0 -97.5 12.5t-76.5 46.5q-9 6 -9 19q0 10 7 17t17 7q9 0 15 -6q29 -27 63 -39t81 -12q72 0 118.5 38.5t46.5 116.5v75q-29 -39 -73.5 -64t-94.5 -25q-64 0 -113 31t-76 88t-27 133
q0 75 27 132.5t76 89t113 31.5q50 0 94 -23.5t74 -65.5v54q0 11 8 18.5t19 7.5t18.5 -7.5zM371 62.5q44 25.5 66 62.5v235q-22 37 -66 62.5t-93 25.5q-78 0 -123.5 -58t-45.5 -148t45.5 -147.5t123.5 -57.5q49 0 93 25.5zM197 586.5q-43 19.5 -76 55.5q-4 5 -4 13t5.5 13.5
t13.5 5.5q9 0 14 -6q26 -30 61 -46.5t76 -16.5q82 0 137 63q3 6 14 6q7 0 13 -5.5t6 -13.5q0 -6 -5 -13q-32 -36 -74 -55.5t-91 -19.5q-47 0 -90 19.5z" />
    <glyph glyph-name="Gdotaccent" unicode="&#x120;" horiz-adv-x="711" 
d="M649 300v-179q0 -25 -16 -38q-45 -45 -106 -70.5t-131 -25.5q-93 0 -170.5 44t-122.5 122.5t-45 179.5t45 179.5t122.5 122t170.5 43.5q138 0 233 -93q7 -6 7 -18t-7.5 -19.5t-19.5 -7.5q-11 0 -18 7q-37 37 -88 58t-107 21q-78 0 -141.5 -37t-100 -104t-36.5 -152
q0 -84 36.5 -151.5t100 -105t141.5 -37.5q61 0 112 24t84 57v160h-230q-11 0 -18.5 7.5t-7.5 18.5q0 10 7.5 17.5t18.5 7.5h256q31 0 31 -31zM369 797q11 11 27 11q15 0 26 -11t11 -27t-11 -27t-26 -11q-16 0 -27 11t-11 27t11 27z" />
    <glyph glyph-name="gdotaccent" unicode="&#x121;" horiz-adv-x="570" 
d="M482.5 478.5q7.5 -7.5 7.5 -18.5v-455q0 -104 -60.5 -152.5t-157.5 -48.5q-58 0 -97.5 12.5t-76.5 46.5q-9 6 -9 19q0 10 7 17t17 7q9 0 15 -6q29 -27 63 -39t81 -12q72 0 118.5 38.5t46.5 116.5v75q-29 -39 -73.5 -64t-94.5 -25q-64 0 -113 31t-76 88t-27 133
q0 75 27 132.5t76 89t113 31.5q50 0 94 -23.5t74 -65.5v54q0 11 8 18.5t19 7.5t18.5 -7.5zM371 62.5q44 25.5 66 62.5v235q-22 37 -66 62.5t-93 25.5q-78 0 -123.5 -58t-45.5 -148t45.5 -147.5t123.5 -57.5q49 0 93 25.5zM261 650q11 11 27 11q15 0 26 -11t11 -27t-11 -27
t-26 -11q-16 0 -27 11t-11 27t11 27z" />
    <glyph glyph-name="uni0122" unicode="&#x122;" horiz-adv-x="711" 
d="M649 300v-179q0 -25 -16 -38q-45 -45 -106 -70.5t-131 -25.5q-93 0 -170.5 44t-122.5 122.5t-45 179.5t45 179.5t122.5 122t170.5 43.5q138 0 233 -93q7 -6 7 -18t-7.5 -19.5t-19.5 -7.5q-11 0 -18 7q-37 37 -88 58t-107 21q-78 0 -141.5 -37t-100 -104t-36.5 -152
q0 -84 36.5 -151.5t100 -105t141.5 -37.5q61 0 112 24t84 57v160h-230q-11 0 -18.5 7.5t-7.5 18.5q0 10 7.5 17.5t18.5 7.5h256q31 0 31 -31zM359.5 -259q-5.5 5 -5.5 12q0 8 9 15q18 17 29 38t12 40l-10 -1q-16 0 -26 10.5t-10 27.5q0 16 11 27.5t27 11.5q20 0 33.5 -16
t13.5 -43q0 -35 -16.5 -67.5t-41.5 -53.5q-6 -6 -13 -6t-12.5 5z" />
    <glyph glyph-name="uni0123" unicode="&#x123;" horiz-adv-x="570" 
d="M249.5 578q-13.5 16 -13.5 44q0 34 16.5 66.5t41.5 54.5q8 6 13 6q8 0 13 -5t5 -13t-9 -15q-18 -16 -29 -37.5t-12 -40.5q1 1 4 1.5t6 0.5q16 0 26 -11t10 -28q0 -16 -11 -27.5t-28 -11.5q-19 0 -32.5 16zM482.5 478.5q7.5 -7.5 7.5 -18.5v-455q0 -104 -60.5 -152.5
t-157.5 -48.5q-58 0 -97.5 12.5t-76.5 46.5q-9 6 -9 19q0 10 7 17t17 7q9 0 15 -6q29 -27 63 -39t81 -12q72 0 118.5 38.5t46.5 116.5v75q-29 -39 -73.5 -64t-94.5 -25q-64 0 -113 31t-76 88t-27 133q0 75 27 132.5t76 89t113 31.5q50 0 94 -23.5t74 -65.5v54q0 11 8 18.5
t19 7.5t18.5 -7.5zM371 62.5q44 25.5 66 62.5v235q-22 37 -66 62.5t-93 25.5q-78 0 -123.5 -58t-45.5 -148t45.5 -147.5t123.5 -57.5q49 0 93 25.5z" />
    <glyph glyph-name="Hcircumflex" unicode="&#x124;" horiz-adv-x="703" 
d="M571.5 6q-8.5 9 -8.5 20v291h-423v-291q0 -12 -8 -20.5t-20 -8.5t-20.5 9t-8.5 20v615q0 12 8.5 20.5t20.5 8.5t20 -8.5t8 -20.5v-272h423v272q0 12 8.5 20.5t20.5 8.5t20.5 -8.5t8.5 -20.5v-615q0 -11 -8.5 -20t-20.5 -9t-20.5 9zM354 836l-86 -114q-6 -6 -12 -6
q-7 0 -12 5t-5 12q0 3 2 9l80 116q4 7 12 11t16 4h9q8 0 16.5 -4t12.5 -11l79 -116q3 -4 3 -9q0 -7 -5.5 -12t-12.5 -5q-6 0 -12 6z" />
    <glyph glyph-name="hcircumflex" unicode="&#x125;" horiz-adv-x="540" 
d="M415 5q-8 8 -8 18v306q0 66 -30 92.5t-87 26.5q-45 0 -89 -24t-68 -59v-342q0 -10 -7.5 -18t-18.5 -8q-10 0 -18 8t-8 18v621q0 11 8 18.5t18 7.5q11 0 18.5 -7.5t7.5 -18.5v-234q29 34 77 59.5t97 25.5q75 0 113.5 -37.5t38.5 -117.5v-317q0 -10 -7.5 -18t-18.5 -8
q-10 0 -18 8zM272 836l-86 -114q-6 -6 -12 -6q-7 0 -12 5t-5 12q0 3 2 9l80 116q4 7 12 11t16 4h9q8 0 16.5 -4t12.5 -11l79 -116q3 -4 3 -9q0 -7 -5.5 -12t-12.5 -5q-6 0 -12 6z" />
    <glyph glyph-name="Hbar" unicode="&#x126;" horiz-adv-x="724" 
d="M711.5 531.5q5.5 -5.5 5.5 -12.5q0 -8 -5.5 -13.5t-13.5 -5.5h-66v-474q0 -11 -8.5 -20t-20.5 -9t-20.5 9t-8.5 20v291h-422v-291q0 -11 -8.5 -20t-20.5 -9t-20.5 9t-8.5 20v474h-67q-8 0 -13.5 5.5t-5.5 13.5q0 7 5.5 12.5t13.5 5.5h67v104q0 12 8.5 20.5t20.5 8.5
t20.5 -8.5t8.5 -20.5v-104h422v104q0 12 8.5 20.5t20.5 8.5t20.5 -8.5t8.5 -20.5v-104h66q8 0 13.5 -5.5zM574 369v131h-422v-131h422z" />
    <glyph glyph-name="hbar" unicode="&#x127;" horiz-adv-x="541" 
d="M421.5 457.5q38.5 -37.5 38.5 -117.5v-317q0 -10 -7.5 -18t-18.5 -8q-10 0 -18 8t-8 18v306q0 66 -30 92.5t-87 26.5q-45 0 -89 -24t-68 -59v-342q0 -10 -7.5 -18t-18.5 -8q-10 0 -18 8t-8 18v515h-56q-8 0 -13.5 5.5t-5.5 13.5t6 13.5t13 5.5h56v68q0 11 8 18.5t18 7.5
q11 0 18.5 -7.5t7.5 -18.5v-68h146q8 0 13.5 -5.5t5.5 -13.5t-5.5 -13.5t-13.5 -5.5h-146v-128q29 34 77 59.5t97 25.5q75 0 113.5 -37.5z" />
    <glyph glyph-name="Itilde" unicode="&#x128;" horiz-adv-x="223" 
d="M91.5 6q-8.5 9 -8.5 20v615q0 12 8.5 20.5t20.5 8.5t20 -8.5t8 -20.5v-615q0 -12 -8 -20.5t-20 -8.5t-20.5 9zM131 735.5q-15 14.5 -33 43.5q-13 22 -23.5 33.5t-26.5 11.5q-22 0 -36.5 -21t-16.5 -63q-1 -7 -6 -11.5t-12 -4.5t-12.5 6t-4.5 13q4 53 28 85.5t64 32.5
q27 0 42.5 -14.5t32.5 -43.5q14 -23 24 -33.5t26 -10.5q22 0 36.5 20.5t16.5 62.5q1 7 6 11.5t12 4.5t12.5 -5.5t4.5 -13.5q-4 -53 -28 -85.5t-63 -32.5q-28 0 -43 14.5z" />
    <glyph glyph-name="itilde" unicode="&#x129;" horiz-adv-x="214" 
d="M89 5q-8 8 -8 18v437q0 11 8 18.5t18 7.5q11 0 18.5 -7.5t7.5 -18.5v-437q0 -10 -7.5 -18t-18.5 -8q-10 0 -18 8zM126 588.5q-15 14.5 -33 43.5q-13 22 -23.5 33.5t-26.5 11.5q-22 0 -36.5 -21t-16.5 -63q-1 -7 -6 -11.5t-12 -4.5t-12.5 6t-4.5 13q4 53 28 85.5t64 32.5
q27 0 42.5 -14.5t32.5 -43.5q14 -23 24 -33.5t26 -10.5q22 0 36.5 20.5t16.5 62.5q1 7 6 11.5t12 4.5t12.5 -5.5t4.5 -13.5q-4 -53 -28 -85.5t-63 -32.5q-28 0 -43 14.5z" />
    <glyph glyph-name="Imacron" unicode="&#x12a;" horiz-adv-x="223" 
d="M91.5 6q-8.5 9 -8.5 20v615q0 12 8.5 20.5t20.5 8.5t20 -8.5t8 -20.5v-615q0 -12 -8 -20.5t-20 -8.5t-20.5 9zM-33.5 749.5q-5.5 5.5 -5.5 12.5q0 8 5.5 13.5t13.5 5.5h263q8 0 13.5 -5.5t5.5 -13.5q0 -7 -5.5 -12.5t-13.5 -5.5h-263q-8 0 -13.5 5.5z" />
    <glyph glyph-name="imacron" unicode="&#x12b;" horiz-adv-x="214" 
d="M89 5q-8 8 -8 18v437q0 11 8 18.5t18 7.5q11 0 18.5 -7.5t7.5 -18.5v-437q0 -10 -7.5 -18t-18.5 -8q-10 0 -18 8zM-38.5 602.5q-5.5 5.5 -5.5 12.5q0 8 5.5 13.5t13.5 5.5h263q8 0 13.5 -5.5t5.5 -13.5q0 -7 -5.5 -12.5t-13.5 -5.5h-263q-8 0 -13.5 5.5z" />
    <glyph glyph-name="Ibreve" unicode="&#x12c;" horiz-adv-x="223" 
d="M91.5 6q-8.5 9 -8.5 20v615q0 12 8.5 20.5t20.5 8.5t20 -8.5t8 -20.5v-615q0 -12 -8 -20.5t-20 -8.5t-20.5 9zM22 733.5q-43 19.5 -76 55.5q-4 5 -4 13t5.5 13.5t13.5 5.5q9 0 14 -6q26 -30 61 -46.5t76 -16.5q82 0 137 63q3 6 14 6q7 0 13 -5.5t6 -13.5q0 -6 -5 -13
q-32 -36 -74 -55.5t-91 -19.5q-47 0 -90 19.5z" />
    <glyph glyph-name="ibreve" unicode="&#x12d;" horiz-adv-x="214" 
d="M89 5q-8 8 -8 18v437q0 11 8 18.5t18 7.5q11 0 18.5 -7.5t7.5 -18.5v-437q0 -10 -7.5 -18t-18.5 -8q-10 0 -18 8zM17 586.5q-43 19.5 -76 55.5q-4 5 -4 13t5.5 13.5t13.5 5.5q9 0 14 -6q26 -30 61 -46.5t76 -16.5q82 0 137 63q3 6 14 6q7 0 13 -5.5t6 -13.5q0 -6 -5 -13
q-32 -36 -74 -55.5t-91 -19.5q-47 0 -90 19.5z" />
    <glyph glyph-name="Iogonek" unicode="&#x12e;" horiz-adv-x="223" 
d="M140 26q0 -9 -5 -17q6 -2 -2 -7q-44 -28 -67.5 -52t-23.5 -52q0 -20 12.5 -32t34.5 -12q12 0 20.5 3.5t11.5 3.5q8 0 13.5 -5.5t5.5 -13.5q0 -13 -11 -18q-24 -10 -48 -10q-38 0 -65 19.5t-27 53.5q0 33 29.5 63.5t76.5 52.5q-12 9 -12 23v615q0 12 8.5 20.5t20.5 8.5
t20 -8.5t8 -20.5v-615z" />
    <glyph glyph-name="iogonek" unicode="&#x12f;" horiz-adv-x="214" 
d="M135.5 651.5q11.5 -11.5 11.5 -28.5q0 -16 -11.5 -28t-28.5 -12q-16 0 -28 12t-12 28t12 28t28 12q17 0 28.5 -11.5zM125.5 478.5q7.5 -7.5 7.5 -18.5v-437q0 -6 -4 -14q2 -1 1.5 -3t-4.5 -4q-44 -28 -67.5 -52t-23.5 -52q0 -20 12.5 -32t34.5 -12q12 0 20.5 3.5
t11.5 3.5q8 0 13.5 -5.5t5.5 -13.5q0 -13 -11 -18q-24 -10 -48 -10q-38 0 -65 19.5t-27 53.5t30 64.5t78 52.5q-9 8 -9 19v437q0 11 8 18.5t18 7.5q11 0 18.5 -7.5z" />
    <glyph glyph-name="Idotaccent" unicode="&#x130;" horiz-adv-x="223" 
d="M91.5 6q-8.5 9 -8.5 20v615q0 12 8.5 20.5t20.5 8.5t20 -8.5t8 -20.5v-615q0 -12 -8 -20.5t-20 -8.5t-20.5 9zM86 797q11 11 27 11q15 0 26 -11t11 -27t-11 -27t-26 -11q-16 0 -27 11t-11 27t11 27z" />
    <glyph glyph-name="dotlessi" unicode="&#x131;" horiz-adv-x="214" 
d="M89 5q-8 8 -8 18v437q0 11 8 18.5t18 7.5q11 0 18.5 -7.5t7.5 -18.5v-437q0 -10 -7.5 -18t-18.5 -8q-10 0 -18 8z" />
    <glyph glyph-name="IJ" unicode="&#x132;" horiz-adv-x="693" 
d="M91.5 6q-8.5 9 -8.5 20v615q0 12 8.5 20.5t20.5 8.5t20 -8.5t8 -20.5v-615q0 -12 -8 -20.5t-20 -8.5t-20.5 9zM243 73q0 12 8.5 20.5t19.5 8.5t19 -8q49 -54 115 -54q67 0 107 42.5t40 110.5v448q0 12 8.5 20.5t20.5 8.5t20.5 -8.5t8.5 -20.5v-448q0 -100 -57 -152.5
t-145 -52.5q-48 0 -86 16t-69 49q-10 8 -10 20z" />
    <glyph glyph-name="ij" unicode="&#x133;" horiz-adv-x="428" 
d="M79 595q-12 12 -12 28t12 28t28 12q17 0 28.5 -11.5t11.5 -28.5q0 -16 -11.5 -28t-28.5 -12q-16 0 -28 12zM89 5q-8 8 -8 18v437q0 11 8 18.5t18 7.5q11 0 18.5 -7.5t7.5 -18.5v-437q0 -10 -7.5 -18t-18.5 -8q-10 0 -18 8zM293 595q-12 12 -12 28t12 28t28 12
q17 0 28.5 -11.5t11.5 -28.5q0 -16 -11.5 -28t-28.5 -12q-16 0 -28 12zM186 -192q-9 2 -14.5 8t-5.5 15t6 16t15 7q3 0 10 -2t18 -2q37 0 58.5 21.5t21.5 66.5v522q0 11 8 18.5t18 7.5q11 0 18.5 -7.5t7.5 -18.5v-522q0 -66 -33.5 -100t-94.5 -34q-18 0 -33 4z" />
    <glyph glyph-name="Jcircumflex" unicode="&#x134;" horiz-adv-x="470" 
d="M20 73q0 12 8.5 20.5t19.5 8.5t19 -8q49 -54 115 -54q67 0 107 42.5t40 110.5v448q0 12 8.5 20.5t20.5 8.5t20.5 -8.5t8.5 -20.5v-448q0 -100 -57 -152.5t-145 -52.5q-48 0 -86 16t-69 49q-10 8 -10 20zM361 853l-86 -114q-6 -6 -12 -6q-7 0 -12 5t-5 12q0 3 2 9l80 116
q4 7 12 11t16 4h9q8 0 16.5 -4t12.5 -11l79 -116q3 -4 3 -9q0 -7 -5.5 -12t-12.5 -5q-6 0 -12 6z" />
    <glyph glyph-name="jcircumflex" unicode="&#x135;" horiz-adv-x="214" 
d="M-28 -192q-9 2 -14.5 8t-5.5 15t6 16t15 7q3 0 10 -2t18 -2q37 0 58.5 21.5t21.5 66.5v522q0 11 8 18.5t18 7.5q11 0 18.5 -7.5t7.5 -18.5v-522q0 -66 -33.5 -100t-94.5 -34q-18 0 -33 4zM108 689l-86 -114q-6 -6 -12 -6q-7 0 -12 5t-5 12q0 3 2 9l80 116q4 7 12 11t16 4
h9q8 0 16.5 -4t12.5 -11l79 -116q3 -4 3 -9q0 -7 -5.5 -12t-12.5 -5q-6 0 -12 6z" />
    <glyph glyph-name="uni0136" unicode="&#x136;" horiz-adv-x="586" 
d="M541 25q0 -11 -8 -19.5t-19 -8.5q-13 0 -21 8l-279 307l-74 -80v-206q0 -12 -8 -20.5t-20 -8.5t-20.5 9t-8.5 20v615q0 12 8.5 20.5t20.5 8.5t20 -8.5t8 -20.5v-340l326 360q7 9 20 9q11 0 19.5 -8t8.5 -19t-8 -19l-255 -276l282 -304q8 -10 8 -19zM270.5 -259
q-5.5 5 -5.5 12q0 8 9 15q18 17 29 38t12 40l-10 -1q-16 0 -26 10.5t-10 27.5q0 16 11 27.5t27 11.5q20 0 33.5 -16t13.5 -43q0 -35 -16.5 -67.5t-41.5 -53.5q-6 -6 -13 -6t-12.5 5z" />
    <glyph glyph-name="uni0137" unicode="&#x137;" horiz-adv-x="505" 
d="M464 24q0 -11 -7.5 -19t-18.5 -8q-13 0 -21 9l-194 224l-90 -85v-122q0 -10 -7.5 -18t-18.5 -8q-10 0 -18 8t-8 18v621q0 11 8 18.5t18 7.5q11 0 18.5 -7.5t7.5 -18.5v-436l287 272q8 6 17 6q10 0 17 -7.5t7 -17.5t-8 -18l-190 -179l195 -222q6 -7 6 -18zM220.5 -259
q-5.5 5 -5.5 12q0 8 9 15q18 17 29 38t12 40l-10 -1q-16 0 -26 10.5t-10 27.5q0 16 11 27.5t27 11.5q20 0 33.5 -16t13.5 -43q0 -35 -16.5 -67.5t-41.5 -53.5q-6 -6 -13 -6t-12.5 5z" />
    <glyph glyph-name="kgreenlandic" unicode="&#x138;" horiz-adv-x="505" 
d="M464 24q0 -11 -7.5 -19t-18.5 -8q-13 0 -21 9l-194 224l-90 -85v-122q0 -10 -7.5 -18t-18.5 -8q-10 0 -18 8t-8 18v437q0 11 8 18.5t18 7.5q11 0 18.5 -7.5t7.5 -18.5v-252l287 272q8 6 17 6q10 0 17 -7.5t7 -17.5t-8 -18l-190 -179l195 -222q6 -7 6 -18z" />
    <glyph glyph-name="Lacute" unicode="&#x139;" horiz-adv-x="504" 
d="M91 8.5q-8 8.5 -8 22.5v610q0 12 8.5 20.5t20.5 8.5t20 -8.5t8 -20.5v-589h300q11 0 18.5 -7.5t7.5 -18.5q0 -10 -7.5 -18t-18.5 -8h-326q-15 0 -23 8.5zM120 720q-6 0 -10.5 4.5t-4.5 10.5q0 4 5 11l127 118q6 6 14 6t14 -6t6 -14q0 -10 -7 -15l-133 -111q-4 -4 -11 -4z
" />
    <glyph glyph-name="lacute" unicode="&#x13a;" horiz-adv-x="214" 
d="M89 5q-8 8 -8 18v621q0 11 8 18.5t18 7.5q11 0 18.5 -7.5t7.5 -18.5v-621q0 -10 -7.5 -18t-18.5 -8q-10 0 -18 8zM115 720q-6 0 -10.5 4.5t-4.5 10.5q0 4 5 11l127 118q6 6 14 6t14 -6t6 -14q0 -10 -7 -15l-133 -111q-4 -4 -11 -4z" />
    <glyph glyph-name="uni013B" unicode="&#x13b;" horiz-adv-x="504" 
d="M91 8.5q-8 8.5 -8 22.5v610q0 12 8.5 20.5t20.5 8.5t20 -8.5t8 -20.5v-589h300q11 0 18.5 -7.5t7.5 -18.5q0 -10 -7.5 -18t-18.5 -8h-326q-15 0 -23 8.5zM237.5 -259q-5.5 5 -5.5 12q0 8 9 15q18 17 29 38t12 40l-10 -1q-16 0 -26 10.5t-10 27.5q0 16 11 27.5t27 11.5
q20 0 33.5 -16t13.5 -43q0 -35 -16.5 -67.5t-41.5 -53.5q-6 -6 -13 -6t-12.5 5z" />
    <glyph glyph-name="uni013C" unicode="&#x13c;" horiz-adv-x="214" 
d="M89 5q-8 8 -8 18v621q0 11 8 18.5t18 7.5q11 0 18.5 -7.5t7.5 -18.5v-621q0 -10 -7.5 -18t-18.5 -8q-10 0 -18 8zM70.5 -259q-5.5 5 -5.5 12q0 8 9 15q18 17 29 38t12 40l-10 -1q-16 0 -26 10.5t-10 27.5q0 16 11 27.5t27 11.5q20 0 33.5 -16t13.5 -43q0 -35 -16.5 -67.5
t-41.5 -53.5q-6 -6 -13 -6t-12.5 5z" />
    <glyph glyph-name="Lcaron" unicode="&#x13d;" horiz-adv-x="504" 
d="M91 8.5q-8 8.5 -8 22.5v610q0 12 8.5 20.5t20.5 8.5t20 -8.5t8 -20.5v-589h300q11 0 18.5 -7.5t7.5 -18.5q0 -10 -7.5 -18t-18.5 -8h-326q-15 0 -23 8.5zM243.5 498q-5.5 5 -5.5 12q0 8 9 15q18 17 29 38t12 40l-10 -1q-16 0 -26 10.5t-10 27.5q0 16 11 27.5t27 11.5
q20 0 33.5 -16t13.5 -43q0 -35 -16.5 -67.5t-41.5 -53.5q-6 -6 -13 -6t-12.5 5z" />
    <glyph glyph-name="lcaron" unicode="&#x13e;" horiz-adv-x="264" 
d="M89 5q-8 8 -8 18v621q0 11 8 18.5t18 7.5q11 0 18.5 -7.5t7.5 -18.5v-621q0 -10 -7.5 -18t-18.5 -8q-10 0 -18 8zM188.5 498q-5.5 5 -5.5 12q0 8 9 15q18 17 29 38t12 40l-10 -1q-16 0 -26 10.5t-10 27.5q0 16 11 27.5t27 11.5q20 0 33.5 -16t13.5 -43q0 -35 -16.5 -67.5
t-41.5 -53.5q-6 -6 -13 -6t-12.5 5z" />
    <glyph glyph-name="Ldot" unicode="&#x13f;" horiz-adv-x="504" 
d="M91 8.5q-8 8.5 -8 22.5v610q0 12 8.5 20.5t20.5 8.5t20 -8.5t8 -20.5v-589h300q11 0 18.5 -7.5t7.5 -18.5q0 -10 -7.5 -18t-18.5 -8h-326q-15 0 -23 8.5zM326 311q-13 13 -13 31q0 17 13 30t31 13t31.5 -13t13.5 -30q0 -18 -13.5 -31t-31.5 -13t-31 13z" />
    <glyph glyph-name="ldot" unicode="&#x140;" horiz-adv-x="273" 
d="M89 5q-8 8 -8 18v621q0 11 8 18.5t18 7.5q11 0 18.5 -7.5t7.5 -18.5v-621q0 -10 -7.5 -18t-18.5 -8q-10 0 -18 8zM212 214q-13 13 -13 31q0 17 13 30t31 13t31.5 -13t13.5 -30q0 -18 -13.5 -31t-31.5 -13t-31 13z" />
    <glyph glyph-name="Lslash" unicode="&#x141;" horiz-adv-x="526" 
d="M480.5 44.5q7.5 -7.5 7.5 -18.5q0 -10 -7.5 -18t-18.5 -8h-326q-15 0 -23 8.5t-8 22.5v257l-63 -36q-4 -3 -11 -3q-9 0 -16 6.5t-7 16.5q0 12 12 19l85 50v300q0 12 8.5 20.5t20.5 8.5t20 -8.5t8 -20.5v-267l74 43q4 3 11 3q10 0 17 -6.5t7 -16.5t-12 -20l-97 -56v-269
h300q11 0 18.5 -7.5z" />
    <glyph glyph-name="lslash" unicode="&#x142;" horiz-adv-x="277" 
d="M263 411.5q6 -5.5 6 -14.5q0 -11 -10 -17l-94 -54v-303q0 -10 -7.5 -18t-18.5 -8q-10 0 -18 8t-8 18v273l-75 -43q-6 -2 -10 -2q-8 0 -14 5.5t-6 14.5q0 11 10 17l95 55v301q0 11 8 18.5t18 7.5q11 0 18.5 -7.5t7.5 -18.5v-272l74 43q6 2 10 2q8 0 14 -5.5z" />
    <glyph glyph-name="Nacute" unicode="&#x143;" horiz-adv-x="699" 
d="M551 12l-411 564v-550q0 -12 -8 -20.5t-20 -8.5t-20.5 9t-8.5 20v606q0 16 10.5 27t26.5 11q20 0 31 -16l408 -555v542q0 12 8 20.5t20 8.5t20.5 -8.5t8.5 -20.5v-608q0 -14 -10.5 -25t-24.5 -11q-20 0 -30 15zM358 720q-6 0 -10.5 4.5t-4.5 10.5q0 4 5 11l127 118
q6 6 14 6t14 -6t6 -14q0 -10 -7 -15l-133 -111q-4 -4 -11 -4z" />
    <glyph glyph-name="nacute" unicode="&#x144;" horiz-adv-x="540" 
d="M459 338v-315q0 -10 -7.5 -18t-18.5 -8q-10 0 -18 8t-8 18v304q0 66 -30 93.5t-87 27.5q-45 0 -89 -24t-68 -59v-342q0 -10 -7.5 -18t-18.5 -8q-10 0 -18 8t-8 18v437q0 11 8 18.5t18 7.5q11 0 18.5 -7.5t7.5 -18.5v-50q29 34 77 59.5t97 25.5q152 0 152 -157zM278 573
q-6 0 -10.5 4.5t-4.5 10.5q0 4 5 11l127 118q6 6 14 6t14 -6t6 -14q0 -10 -7 -15l-133 -111q-4 -4 -11 -4z" />
    <glyph glyph-name="uni0145" unicode="&#x145;" horiz-adv-x="699" 
d="M551 12l-411 564v-550q0 -12 -8 -20.5t-20 -8.5t-20.5 9t-8.5 20v606q0 16 10.5 27t26.5 11q20 0 31 -16l408 -555v542q0 12 8 20.5t20 8.5t20.5 -8.5t8.5 -20.5v-608q0 -14 -10.5 -25t-24.5 -11q-20 0 -30 15zM303.5 -259q-5.5 5 -5.5 12q0 8 9 15q18 17 29 38t12 40
l-10 -1q-16 0 -26 10.5t-10 27.5q0 16 11 27.5t27 11.5q20 0 33.5 -16t13.5 -43q0 -35 -16.5 -67.5t-41.5 -53.5q-6 -6 -13 -6t-12.5 5z" />
    <glyph glyph-name="uni0146" unicode="&#x146;" horiz-adv-x="540" 
d="M459 338v-315q0 -10 -7.5 -18t-18.5 -8q-10 0 -18 8t-8 18v304q0 66 -30 93.5t-87 27.5q-45 0 -89 -24t-68 -59v-342q0 -10 -7.5 -18t-18.5 -8q-10 0 -18 8t-8 18v437q0 11 8 18.5t18 7.5q11 0 18.5 -7.5t7.5 -18.5v-50q29 34 77 59.5t97 25.5q152 0 152 -157z
M233.5 -259q-5.5 5 -5.5 12q0 8 9 15q18 17 29 38t12 40l-10 -1q-16 0 -26 10.5t-10 27.5q0 16 11 27.5t27 11.5q20 0 33.5 -16t13.5 -43q0 -35 -16.5 -67.5t-41.5 -53.5q-6 -6 -13 -6t-12.5 5z" />
    <glyph glyph-name="Ncaron" unicode="&#x147;" horiz-adv-x="699" 
d="M551 12l-411 564v-550q0 -12 -8 -20.5t-20 -8.5t-20.5 9t-8.5 20v606q0 16 10.5 27t26.5 11q20 0 31 -16l408 -555v542q0 12 8 20.5t20 8.5t20.5 -8.5t8.5 -20.5v-608q0 -14 -10.5 -25t-24.5 -11q-20 0 -30 15zM458.5 868q5.5 -5 5.5 -12q0 -5 -3 -8l-79 -116
q-4 -7 -12.5 -11.5t-16.5 -4.5h-9q-9 0 -16.5 4.5t-11.5 11.5l-80 116q-2 4 -2 8q0 7 5 12t12 5t12 -6l86 -113l85 113q4 6 12 6q7 0 12.5 -5z" />
    <glyph glyph-name="ncaron" unicode="&#x148;" horiz-adv-x="540" 
d="M459 338v-315q0 -10 -7.5 -18t-18.5 -8q-10 0 -18 8t-8 18v304q0 66 -30 93.5t-87 27.5q-45 0 -89 -24t-68 -59v-342q0 -10 -7.5 -18t-18.5 -8q-10 0 -18 8t-8 18v437q0 11 8 18.5t18 7.5q11 0 18.5 -7.5t7.5 -18.5v-50q29 34 77 59.5t97 25.5q152 0 152 -157zM378.5 721
q5.5 -5 5.5 -12q0 -5 -3 -8l-79 -116q-4 -7 -12.5 -11.5t-16.5 -4.5h-9q-9 0 -16.5 4.5t-11.5 11.5l-80 116q-2 4 -2 8q0 7 5 12t12 5t12 -6l86 -113l85 113q4 6 12 6q7 0 12.5 -5z" />
    <glyph glyph-name="napostrophe" unicode="&#x149;" horiz-adv-x="540" 
d="M459 338v-315q0 -10 -7.5 -18t-18.5 -8q-10 0 -18 8t-8 18v304q0 66 -30 93.5t-87 27.5q-45 0 -89 -24t-68 -59v-342q0 -10 -7.5 -18t-18.5 -8q-10 0 -18 8t-8 18v437q0 11 8 18.5t18 7.5q11 0 18.5 -7.5t7.5 -18.5v-50q29 34 77 59.5t97 25.5q152 0 152 -157zM71.5 553
q-5.5 5 -5.5 12q0 8 9 15q18 17 29 38t12 40l-10 -1q-16 0 -26 10.5t-10 27.5q0 16 11 27.5t27 11.5q20 0 33.5 -16t13.5 -43q0 -35 -16.5 -67.5t-41.5 -53.5q-6 -6 -13 -6t-12.5 5z" />
    <glyph glyph-name="Eng" unicode="&#x14a;" horiz-adv-x="699" 
d="M607.5 661.5q8.5 -8.5 8.5 -20.5v-635q0 -99 -57 -150.5t-145 -51.5q-48 0 -86 16t-69 49q-10 8 -10 20t8.5 20.5t19.5 8.5t19 -8q49 -54 116 -54t106 41t37 109l-415 570v-550q0 -12 -8 -20.5t-20 -8.5t-20.5 9t-8.5 20v606q0 16 10.5 27t26.5 11q20 0 31 -16l408 -555
v542q0 12 8 20.5t20 8.5t20.5 -8.5z" />
    <glyph glyph-name="eng" unicode="&#x14b;" horiz-adv-x="540" 
d="M459 338v-400q0 -66 -33.5 -100t-94.5 -34q-20 0 -33 4q-9 2 -14.5 8t-5.5 15t6 16t15 7q3 0 10 -2t18 -2q37 0 58.5 21.5t21.5 66.5v389q0 66 -30 93.5t-87 27.5q-45 0 -89 -24t-68 -59v-342q0 -10 -7.5 -18t-18.5 -8q-10 0 -18 8t-8 18v437q0 11 8 18.5t18 7.5
q11 0 18.5 -7.5t7.5 -18.5v-50q29 34 77 59.5t97 25.5q152 0 152 -157z" />
    <glyph glyph-name="Omacron" unicode="&#x14c;" horiz-adv-x="764" 
d="M98.5 509q40.5 79 114 124t169.5 45q95 0 169 -45t114.5 -124t40.5 -176t-40.5 -176t-114.5 -124t-169 -45q-96 0 -169.5 45t-114 124t-40.5 176t40.5 176zM613.5 484.5q-32.5 66.5 -92.5 104t-139 37.5q-80 0 -139.5 -37.5t-92 -104t-32.5 -151.5q0 -84 32.5 -150.5
t92.5 -104.5t139 -38q78 0 138 38t93 104.5t33 150.5q0 85 -32.5 151.5zM236.5 749.5q-5.5 5.5 -5.5 12.5q0 8 5.5 13.5t13.5 5.5h263q8 0 13.5 -5.5t5.5 -13.5q0 -7 -5.5 -12.5t-13.5 -5.5h-263q-8 0 -13.5 5.5z" />
    <glyph glyph-name="omacron" unicode="&#x14d;" 
d="M163.5 21.5q-52.5 33.5 -81.5 91.5t-29 129t29 128.5t81.5 91t121.5 33.5q70 0 123 -33.5t81.5 -91t28.5 -128.5t-28.5 -129t-81.5 -91.5t-123 -33.5q-69 0 -121.5 33.5zM380 63.5q40 28.5 61 76t21 102.5t-21 102t-61 75.5t-95 28.5q-54 0 -94 -28.5t-61 -75.5t-21 -102
t21 -102.5t61 -76t94 -28.5q55 0 95 28.5zM139.5 602.5q-5.5 5.5 -5.5 12.5q0 8 5.5 13.5t13.5 5.5h263q8 0 13.5 -5.5t5.5 -13.5q0 -7 -5.5 -12.5t-13.5 -5.5h-263q-8 0 -13.5 5.5z" />
    <glyph glyph-name="Obreve" unicode="&#x14e;" horiz-adv-x="764" 
d="M98.5 509q40.5 79 114 124t169.5 45q95 0 169 -45t114.5 -124t40.5 -176t-40.5 -176t-114.5 -124t-169 -45q-96 0 -169.5 45t-114 124t-40.5 176t40.5 176zM613.5 484.5q-32.5 66.5 -92.5 104t-139 37.5q-80 0 -139.5 -37.5t-92 -104t-32.5 -151.5q0 -84 32.5 -150.5
t92.5 -104.5t139 -38q78 0 138 38t93 104.5t33 150.5q0 85 -32.5 151.5zM292 733.5q-43 19.5 -76 55.5q-4 5 -4 13t5.5 13.5t13.5 5.5q9 0 14 -6q26 -30 61 -46.5t76 -16.5q82 0 137 63q3 6 14 6q7 0 13 -5.5t6 -13.5q0 -6 -5 -13q-32 -36 -74 -55.5t-91 -19.5
q-47 0 -90 19.5z" />
    <glyph glyph-name="obreve" unicode="&#x14f;" 
d="M163.5 21.5q-52.5 33.5 -81.5 91.5t-29 129t29 128.5t81.5 91t121.5 33.5q70 0 123 -33.5t81.5 -91t28.5 -128.5t-28.5 -129t-81.5 -91.5t-123 -33.5q-69 0 -121.5 33.5zM380 63.5q40 28.5 61 76t21 102.5t-21 102t-61 75.5t-95 28.5q-54 0 -94 -28.5t-61 -75.5t-21 -102
t21 -102.5t61 -76t94 -28.5q55 0 95 28.5zM195 586.5q-43 19.5 -76 55.5q-4 5 -4 13t5.5 13.5t13.5 5.5q9 0 14 -6q26 -30 61 -46.5t76 -16.5q82 0 137 63q3 6 14 6q7 0 13 -5.5t6 -13.5q0 -6 -5 -13q-32 -36 -74 -55.5t-91 -19.5q-47 0 -90 19.5z" />
    <glyph glyph-name="Ohungarumlaut" unicode="&#x150;" horiz-adv-x="764" 
d="M98.5 509q40.5 79 114 124t169.5 45q95 0 169 -45t114.5 -124t40.5 -176t-40.5 -176t-114.5 -124t-169 -45q-96 0 -169.5 45t-114 124t-40.5 176t40.5 176zM613.5 484.5q-32.5 66.5 -92.5 104t-139 37.5q-80 0 -139.5 -37.5t-92 -104t-32.5 -151.5q0 -84 32.5 -150.5
t92.5 -104.5t139 -38q78 0 138 38t93 104.5t33 150.5q0 85 -32.5 151.5zM304 721.5q-5 4.5 -5 10.5t4 11l83 121q5 10 17 10q8 0 14.5 -6.5t6.5 -15.5q0 -7 -4 -12l-92 -115q-5 -8 -13 -8q-6 0 -11 4.5zM443 721.5q-5 4.5 -5 10.5t4 11l83 121q5 10 17 10q8 0 14.5 -6.5
t6.5 -15.5q0 -7 -4 -12l-92 -115q-5 -8 -13 -8q-6 0 -11 4.5z" />
    <glyph glyph-name="ohungarumlaut" unicode="&#x151;" 
d="M163.5 21.5q-52.5 33.5 -81.5 91.5t-29 129t29 128.5t81.5 91t121.5 33.5q70 0 123 -33.5t81.5 -91t28.5 -128.5t-28.5 -129t-81.5 -91.5t-123 -33.5q-69 0 -121.5 33.5zM380 63.5q40 28.5 61 76t21 102.5t-21 102t-61 75.5t-95 28.5q-54 0 -94 -28.5t-61 -75.5t-21 -102
t21 -102.5t61 -76t94 -28.5q55 0 95 28.5zM207 574.5q-5 4.5 -5 10.5t4 11l83 121q5 10 17 10q8 0 14.5 -6.5t6.5 -15.5q0 -7 -4 -12l-92 -115q-5 -8 -13 -8q-6 0 -11 4.5zM346 574.5q-5 4.5 -5 10.5t4 11l83 121q5 10 17 10q8 0 14.5 -6.5t6.5 -15.5q0 -7 -4 -12l-92 -115
q-5 -8 -13 -8q-6 0 -11 4.5z" />
    <glyph glyph-name="OE" unicode="&#x152;" horiz-adv-x="1115" 
d="M1050.5 44.5q7.5 -7.5 7.5 -18.5q0 -10 -7.5 -18t-18.5 -8h-369q-14 0 -22.5 8.5t-8.5 22.5v105q-37 -71 -105.5 -109.5t-147.5 -38.5q-95 0 -168 45t-113 124t-40 176t40 175.5t113 123.5t168 45q79 0 147.5 -38.5t105.5 -108.5v106q0 15 8.5 23t22.5 8h369
q11 0 18.5 -7.5t7.5 -18.5q0 -10 -7.5 -18t-18.5 -8h-342v-247h335q11 0 18.5 -7.5t7.5 -18.5q0 -10 -7.5 -18t-18.5 -8h-335v-264h342q11 0 18.5 -7.5zM534.5 86.5q65.5 46.5 97.5 134.5v225q-31 88 -96.5 133.5t-152.5 45.5q-80 0 -140 -37.5t-92.5 -103.5t-32.5 -151
q0 -84 32.5 -151t92.5 -104.5t140 -37.5q86 0 151.5 46.5z" />
    <glyph glyph-name="oe" unicode="&#x153;" horiz-adv-x="975" 
d="M544.5 128q23.5 -44 65.5 -69.5t97 -25.5q84 0 145 55q5 4 13 4q9 0 15.5 -6t6.5 -16t-9 -17q-74 -65 -174 -65q-89 0 -142 46.5t-72 104.5q-22 -58 -71 -104.5t-134 -46.5q-69 0 -121.5 33.5t-81.5 91.5t-29 129t29 128.5t81.5 91t121.5 33.5q86 0 136 -47.5t69 -103.5
q19 55 70.5 103t133.5 48q71 0 122.5 -34.5t78.5 -92.5t27 -129q0 -14 -31 -14h-372q2 -53 25.5 -97zM848.5 352.5q-19.5 42.5 -59 70t-96.5 27.5q-53 0 -92 -27.5t-60 -70t-23 -86.5h351q-1 44 -20.5 86.5zM191 420q-40 -28 -61 -75.5t-21 -102.5q0 -56 21 -103.5t61 -76
t94 -28.5q55 0 95 28.5t61 76t21 103.5q0 55 -21 102.5t-61 75.5t-95 28q-54 0 -94 -28z" />
    <glyph glyph-name="Racute" unicode="&#x154;" horiz-adv-x="594" 
d="M530 43q5 -7 5 -18t-7.5 -19.5t-19.5 -8.5q-16 0 -25 12l-186 267h-157v-250q0 -12 -8 -20.5t-20 -8.5t-20.5 9t-8.5 20v610q0 31 31 31h218q58 0 104 -23.5t72.5 -67.5t26.5 -104q0 -84 -50 -134.5t-125 -56.5zM140 328h187q66 0 107 40.5t41 103.5t-41 103t-107 40
h-187v-287zM308 720q-6 0 -10.5 4.5t-4.5 10.5q0 4 5 11l127 118q6 6 14 6t14 -6t6 -14q0 -10 -7 -15l-133 -111q-4 -4 -11 -4z" />
    <glyph glyph-name="racute" unicode="&#x155;" horiz-adv-x="317" 
d="M293 483.5q7 -7.5 7 -19.5q0 -10 -8.5 -17.5t-22.5 -8.5q-38 -1 -78 -27t-58 -59v-329q0 -10 -7.5 -18t-18.5 -8q-10 0 -18 8t-8 18v437q0 11 8 18.5t18 7.5q11 0 18.5 -7.5t7.5 -18.5v-61q54 72 118 88q13 4 23 4q12 0 19 -7.5zM196 573q-6 0 -10.5 4.5t-4.5 10.5
q0 4 5 11l127 118q6 6 14 6t14 -6t6 -14q0 -10 -7 -15l-133 -111q-4 -4 -11 -4z" />
    <glyph glyph-name="uni0156" unicode="&#x156;" horiz-adv-x="594" 
d="M530 43q5 -7 5 -18t-7.5 -19.5t-19.5 -8.5q-16 0 -25 12l-186 267h-157v-250q0 -12 -8 -20.5t-20 -8.5t-20.5 9t-8.5 20v610q0 31 31 31h218q58 0 104 -23.5t72.5 -67.5t26.5 -104q0 -84 -50 -134.5t-125 -56.5zM140 328h187q66 0 107 40.5t41 103.5t-41 103t-107 40
h-187v-287zM263.5 -259q-5.5 5 -5.5 12q0 8 9 15q18 17 29 38t12 40l-10 -1q-16 0 -26 10.5t-10 27.5q0 16 11 27.5t27 11.5q20 0 33.5 -16t13.5 -43q0 -35 -16.5 -67.5t-41.5 -53.5q-6 -6 -13 -6t-12.5 5z" />
    <glyph glyph-name="uni0157" unicode="&#x157;" horiz-adv-x="317" 
d="M293 483.5q7 -7.5 7 -19.5q0 -10 -8.5 -17.5t-22.5 -8.5q-38 -1 -78 -27t-58 -59v-329q0 -10 -7.5 -18t-18.5 -8q-10 0 -18 8t-8 18v437q0 11 8 18.5t18 7.5q11 0 18.5 -7.5t7.5 -18.5v-61q54 72 118 88q13 4 23 4q12 0 19 -7.5zM71.5 -259q-5.5 5 -5.5 12q0 8 9 15
q18 17 29 38t12 40l-10 -1q-16 0 -26 10.5t-10 27.5q0 16 11 27.5t27 11.5q20 0 33.5 -16t13.5 -43q0 -35 -16.5 -67.5t-41.5 -53.5q-6 -6 -13 -6t-12.5 5z" />
    <glyph glyph-name="Rcaron" unicode="&#x158;" horiz-adv-x="594" 
d="M530 43q5 -7 5 -18t-7.5 -19.5t-19.5 -8.5q-16 0 -25 12l-186 267h-157v-250q0 -12 -8 -20.5t-20 -8.5t-20.5 9t-8.5 20v610q0 31 31 31h218q58 0 104 -23.5t72.5 -67.5t26.5 -104q0 -84 -50 -134.5t-125 -56.5zM140 328h187q66 0 107 40.5t41 103.5t-41 103t-107 40
h-187v-287zM408.5 868q5.5 -5 5.5 -12q0 -5 -3 -8l-79 -116q-4 -7 -12.5 -11.5t-16.5 -4.5h-9q-9 0 -16.5 4.5t-11.5 11.5l-80 116q-2 4 -2 8q0 7 5 12t12 5t12 -6l86 -113l85 113q4 6 12 6q7 0 12.5 -5z" />
    <glyph glyph-name="rcaron" unicode="&#x159;" horiz-adv-x="317" 
d="M293 483.5q7 -7.5 7 -19.5q0 -10 -8.5 -17.5t-22.5 -8.5q-38 -1 -78 -27t-58 -59v-329q0 -10 -7.5 -18t-18.5 -8q-10 0 -18 8t-8 18v437q0 11 8 18.5t18 7.5q11 0 18.5 -7.5t7.5 -18.5v-61q54 72 118 88q13 4 23 4q12 0 19 -7.5zM296.5 721q5.5 -5 5.5 -12q0 -5 -3 -8
l-79 -116q-4 -7 -12.5 -11.5t-16.5 -4.5h-9q-9 0 -16.5 4.5t-11.5 11.5l-80 116q-2 4 -2 8q0 7 5 12t12 5t12 -6l86 -113l85 113q4 6 12 6q7 0 12.5 -5z" />
    <glyph glyph-name="Sacute" unicode="&#x15a;" horiz-adv-x="581" 
d="M54 97q0 12 8.5 20.5t19.5 8.5t20 -7q81 -79 189 -79q93 0 134.5 40.5t41.5 92.5q0 44 -24.5 71.5t-61.5 42.5t-97 31q-72 20 -114.5 37.5t-72.5 52.5t-30 92q0 53 29.5 93.5t80 62.5t112.5 22q123 0 206 -77q11 -7 11 -21q0 -11 -8.5 -19.5t-20.5 -8.5t-18 7
q-67 67 -173 67q-69 0 -114 -34.5t-45 -88.5q0 -37 23 -60.5t57.5 -37t93.5 -28.5q73 -21 118 -40.5t76.5 -58t31.5 -101.5q0 -47 -23 -90t-76 -71t-138 -28q-70 0 -127.5 23.5t-99.5 64.5q-9 8 -9 21zM294 720q-6 0 -10.5 4.5t-4.5 10.5q0 4 5 11l127 118q6 6 14 6t14 -6
t6 -14q0 -10 -7 -15l-133 -111q-4 -4 -11 -4z" />
    <glyph glyph-name="sacute" unicode="&#x15b;" horiz-adv-x="459" 
d="M45 68q0 11 7.5 18t17.5 7q9 0 15 -6q27 -25 63 -40t78 -15q60 0 94.5 26.5t34.5 69.5q0 29 -18 47.5t-45 28.5t-72 22q-56 14 -89 26.5t-57 38.5t-24 70q0 57 46.5 95.5t125.5 38.5q98 0 159 -58q8 -8 8 -18q0 -9 -6.5 -16t-16.5 -7q-8 0 -14 6q-24 23 -57 36t-73 13
q-55 0 -88 -24.5t-33 -62.5q0 -26 17 -42t42 -25t70 -20q57 -14 91.5 -28t59.5 -42.5t25 -76.5q0 -62 -47 -102t-134 -40q-53 0 -94.5 14.5t-76.5 47.5q-9 7 -9 18zM230 573q-6 0 -10.5 4.5t-4.5 10.5q0 4 5 11l127 118q6 6 14 6t14 -6t6 -14q0 -10 -7 -15l-133 -111
q-4 -4 -11 -4z" />
    <glyph glyph-name="Scircumflex" unicode="&#x15c;" horiz-adv-x="581" 
d="M54 97q0 12 8.5 20.5t19.5 8.5t20 -7q81 -79 189 -79q93 0 134.5 40.5t41.5 92.5q0 44 -24.5 71.5t-61.5 42.5t-97 31q-72 20 -114.5 37.5t-72.5 52.5t-30 92q0 53 29.5 93.5t80 62.5t112.5 22q123 0 206 -77q11 -7 11 -21q0 -11 -8.5 -19.5t-20.5 -8.5t-18 7
q-67 67 -173 67q-69 0 -114 -34.5t-45 -88.5q0 -37 23 -60.5t57.5 -37t93.5 -28.5q73 -21 118 -40.5t76.5 -58t31.5 -101.5q0 -47 -23 -90t-76 -71t-138 -28q-70 0 -127.5 23.5t-99.5 64.5q-9 8 -9 21zM288 836l-86 -114q-6 -6 -12 -6q-7 0 -12 5t-5 12q0 3 2 9l80 116
q4 7 12 11t16 4h9q8 0 16.5 -4t12.5 -11l79 -116q3 -4 3 -9q0 -7 -5.5 -12t-12.5 -5q-6 0 -12 6z" />
    <glyph glyph-name="scircumflex" unicode="&#x15d;" horiz-adv-x="459" 
d="M45 68q0 11 7.5 18t17.5 7q9 0 15 -6q27 -25 63 -40t78 -15q60 0 94.5 26.5t34.5 69.5q0 29 -18 47.5t-45 28.5t-72 22q-56 14 -89 26.5t-57 38.5t-24 70q0 57 46.5 95.5t125.5 38.5q98 0 159 -58q8 -8 8 -18q0 -9 -6.5 -16t-16.5 -7q-8 0 -14 6q-24 23 -57 36t-73 13
q-55 0 -88 -24.5t-33 -62.5q0 -26 17 -42t42 -25t70 -20q57 -14 91.5 -28t59.5 -42.5t25 -76.5q0 -62 -47 -102t-134 -40q-53 0 -94.5 14.5t-76.5 47.5q-9 7 -9 18zM224 689l-86 -114q-6 -6 -12 -6q-7 0 -12 5t-5 12q0 3 2 9l80 116q4 7 12 11t16 4h9q8 0 16.5 -4t12.5 -11
l79 -116q3 -4 3 -9q0 -7 -5.5 -12t-12.5 -5q-6 0 -12 6z" />
    <glyph glyph-name="uni015E" unicode="&#x15e;" horiz-adv-x="581" 
d="M505 89q-22 -42 -71.5 -70t-129.5 -31l-17 -45q15 12 37 12q29 0 47.5 -18t18.5 -48q0 -35 -29 -56.5t-72 -21.5q-25 0 -48 6.5t-40 16.5q-9 4 -9 15q0 8 5 13t12 5t11 -3q28 -20 68 -20q28 0 46.5 12t18.5 33q0 39 -41 39q-20 0 -34 -12q-6 -4 -12 -4q-8 0 -13.5 5
t-5.5 13q0 3 2 9l18 50q-62 4 -114 26.5t-90 60.5q-9 8 -9 21q0 12 8.5 20.5t19.5 8.5t20 -7q81 -79 189 -79q93 0 134.5 40.5t41.5 92.5q0 44 -24.5 71.5t-61.5 42.5t-97 31q-72 20 -114.5 37.5t-72.5 52.5t-30 92q0 53 29.5 93.5t80 62.5t112.5 22q123 0 206 -77
q11 -7 11 -21q0 -11 -8.5 -19.5t-20.5 -8.5t-18 7q-67 67 -173 67q-69 0 -114 -34.5t-45 -88.5q0 -37 23 -60.5t57.5 -37t93.5 -28.5q73 -21 118 -40.5t76.5 -58t31.5 -101.5q0 -46 -22 -88z" />
    <glyph glyph-name="uni015F" unicode="&#x15f;" horiz-adv-x="459" 
d="M363 31.5q-43 -39.5 -123 -43.5l-17 -45q15 12 37 12q29 0 47.5 -18t18.5 -48q0 -35 -29 -56.5t-72 -21.5q-25 0 -48 6.5t-40 16.5q-9 4 -9 15q0 8 5 13t12 5t11 -3q28 -20 68 -20q28 0 46.5 12t18.5 33q0 39 -41 39q-21 0 -34 -12q-6 -4 -12 -4q-8 0 -13.5 5t-5.5 13
q0 3 2 9l18 50q-44 2 -80.5 17t-68.5 44q-9 7 -9 18t7.5 18t17.5 7q9 0 15 -6q27 -25 63 -40t78 -15q60 0 94.5 26.5t34.5 69.5q0 29 -18 47.5t-45 28.5t-72 22q-56 14 -89 26.5t-57 38.5t-24 70q0 57 46.5 95.5t125.5 38.5q98 0 159 -58q8 -8 8 -18q0 -9 -6.5 -16t-16.5 -7
q-8 0 -14 6q-24 23 -57 36t-73 13q-55 0 -88 -24.5t-33 -62.5q0 -26 17 -42t42 -25t70 -20q57 -14 91.5 -28t59.5 -42.5t25 -76.5q0 -59 -43 -98.5z" />
    <glyph glyph-name="Scaron" unicode="&#x160;" horiz-adv-x="581" 
d="M54 97q0 12 8.5 20.5t19.5 8.5t20 -7q81 -79 189 -79q93 0 134.5 40.5t41.5 92.5q0 44 -24.5 71.5t-61.5 42.5t-97 31q-72 20 -114.5 37.5t-72.5 52.5t-30 92q0 53 29.5 93.5t80 62.5t112.5 22q123 0 206 -77q11 -7 11 -21q0 -11 -8.5 -19.5t-20.5 -8.5t-18 7
q-67 67 -173 67q-69 0 -114 -34.5t-45 -88.5q0 -37 23 -60.5t57.5 -37t93.5 -28.5q73 -21 118 -40.5t76.5 -58t31.5 -101.5q0 -47 -23 -90t-76 -71t-138 -28q-70 0 -127.5 23.5t-99.5 64.5q-9 8 -9 21zM394.5 868q5.5 -5 5.5 -12q0 -5 -3 -8l-79 -116q-4 -7 -12.5 -11.5
t-16.5 -4.5h-9q-9 0 -16.5 4.5t-11.5 11.5l-80 116q-2 4 -2 8q0 7 5 12t12 5t12 -6l86 -113l85 113q4 6 12 6q7 0 12.5 -5z" />
    <glyph glyph-name="scaron" unicode="&#x161;" horiz-adv-x="459" 
d="M45 68q0 11 7.5 18t17.5 7q9 0 15 -6q27 -25 63 -40t78 -15q60 0 94.5 26.5t34.5 69.5q0 29 -18 47.5t-45 28.5t-72 22q-56 14 -89 26.5t-57 38.5t-24 70q0 57 46.5 95.5t125.5 38.5q98 0 159 -58q8 -8 8 -18q0 -9 -6.5 -16t-16.5 -7q-8 0 -14 6q-24 23 -57 36t-73 13
q-55 0 -88 -24.5t-33 -62.5q0 -26 17 -42t42 -25t70 -20q57 -14 91.5 -28t59.5 -42.5t25 -76.5q0 -62 -47 -102t-134 -40q-53 0 -94.5 14.5t-76.5 47.5q-9 7 -9 18zM330.5 721q5.5 -5 5.5 -12q0 -5 -3 -8l-79 -116q-4 -7 -12.5 -11.5t-16.5 -4.5h-9q-9 0 -16.5 4.5
t-11.5 11.5l-80 116q-2 4 -2 8q0 7 5 12t12 5t12 -6l86 -113l85 113q4 6 12 6q7 0 12.5 -5z" />
    <glyph glyph-name="uni0162" unicode="&#x162;" horiz-adv-x="564" 
d="M261.5 6q-8.5 9 -8.5 20v589h-195q-10 0 -18 8t-8 18q0 11 8 18.5t18 7.5h449q11 0 18.5 -7.5t7.5 -18.5q0 -10 -7.5 -18t-18.5 -8h-196v-589q0 -11 -8.5 -20t-20.5 -9t-20.5 9zM246.5 -259q-5.5 5 -5.5 12q0 8 9 15q18 17 29 38t12 40l-10 -1q-16 0 -26 10.5t-10 27.5
q0 16 11 27.5t27 11.5q20 0 33.5 -16t13.5 -43q0 -35 -16.5 -67.5t-41.5 -53.5q-6 -6 -13 -6t-12.5 5z" />
    <glyph glyph-name="uni0163" unicode="&#x163;" horiz-adv-x="275" 
d="M258.5 43.5q6.5 -6.5 6.5 -16.5q0 -13 -12 -20q-27 -19 -67 -19q-47 0 -71 27.5t-24 77.5v344h-59q-10 0 -17 6.5t-7 16.5t7 16.5t17 6.5h59v109q0 11 8 18.5t19 7.5t18.5 -7.5t7.5 -18.5v-109h77q10 0 17 -6.5t7 -16.5t-7 -16.5t-17 -6.5h-77v-336q0 -30 12.5 -48
t37.5 -18q18 0 30.5 7.5t17.5 7.5q10 0 16.5 -6.5zM105.5 -259q-5.5 5 -5.5 12q0 8 9 15q18 17 29 38t12 40l-10 -1q-16 0 -26 10.5t-10 27.5q0 16 11 27.5t27 11.5q20 0 33.5 -16t13.5 -43q0 -35 -16.5 -67.5t-41.5 -53.5q-6 -6 -13 -6t-12.5 5z" />
    <glyph glyph-name="Tcaron" unicode="&#x164;" horiz-adv-x="564" 
d="M261.5 6q-8.5 9 -8.5 20v589h-195q-10 0 -18 8t-8 18q0 11 8 18.5t18 7.5h449q11 0 18.5 -7.5t7.5 -18.5q0 -10 -7.5 -18t-18.5 -8h-196v-589q0 -11 -8.5 -20t-20.5 -9t-20.5 9zM391.5 868q5.5 -5 5.5 -12q0 -5 -3 -8l-79 -116q-4 -7 -12.5 -11.5t-16.5 -4.5h-9
q-9 0 -16.5 4.5t-11.5 11.5l-80 116q-2 4 -2 8q0 7 5 12t12 5t12 -6l86 -113l85 113q4 6 12 6q7 0 12.5 -5z" />
    <glyph glyph-name="tcaron" unicode="&#x165;" horiz-adv-x="285" 
d="M258.5 43.5q6.5 -6.5 6.5 -16.5q0 -13 -12 -20q-27 -19 -67 -19q-47 0 -71 27.5t-24 77.5v344h-59q-10 0 -17 6.5t-7 16.5t7 16.5t17 6.5h59v109q0 11 8 18.5t19 7.5t18.5 -7.5t7.5 -18.5v-109h77q10 0 17 -6.5t7 -16.5t-7 -16.5t-17 -6.5h-77v-336q0 -30 12.5 -48
t37.5 -18q18 0 30.5 7.5t17.5 7.5q10 0 16.5 -6.5zM209.5 553q-5.5 5 -5.5 12q0 8 9 15q18 17 29 38t12 40l-10 -1q-16 0 -26 10.5t-10 27.5q0 16 11 27.5t27 11.5q20 0 33.5 -16t13.5 -43q0 -35 -16.5 -67.5t-41.5 -53.5q-6 -6 -13 -6t-12.5 5z" />
    <glyph glyph-name="Tbar" unicode="&#x166;" horiz-adv-x="564" 
d="M525.5 659.5q7.5 -7.5 7.5 -18.5q0 -10 -7.5 -18t-18.5 -8h-196v-270h142q8 0 13.5 -5.5t5.5 -13.5q0 -7 -5.5 -12.5t-13.5 -5.5h-142v-282q0 -11 -8.5 -20t-20.5 -9t-20.5 9t-8.5 20v282h-142q-8 0 -13.5 5.5t-5.5 13.5q0 7 5.5 12.5t13.5 5.5h142v270h-195q-10 0 -18 8
t-8 18q0 11 8 18.5t18 7.5h449q11 0 18.5 -7.5z" />
    <glyph glyph-name="tbar" unicode="&#x167;" horiz-adv-x="275" 
d="M258.5 43.5q6.5 -6.5 6.5 -16.5q0 -13 -12 -20q-27 -19 -67 -19q-47 0 -71 27.5t-24 77.5v141h-64q-7 0 -13 6t-6 13q0 8 6 13.5t13 5.5h64v165h-59q-10 0 -17 6.5t-7 16.5t7 16.5t17 6.5h59v109q0 11 8 18.5t19 7.5t18.5 -7.5t7.5 -18.5v-109h77q10 0 17 -6.5t7 -16.5
t-7 -16.5t-17 -6.5h-77v-165h55q8 0 13.5 -5.5t5.5 -13.5q0 -7 -5.5 -13t-13.5 -6h-55v-133q0 -30 12.5 -48t37.5 -18q18 0 30.5 7.5t17.5 7.5q10 0 16.5 -6.5z" />
    <glyph glyph-name="Utilde" unicode="&#x168;" horiz-adv-x="686" 
d="M83 641q0 12 8.5 20.5t20.5 8.5t20.5 -8.5t8.5 -20.5v-384q0 -102 52.5 -159.5t149.5 -57.5q98 0 150 57t52 160v384q0 12 8.5 20.5t20.5 8.5q13 0 21 -8.5t8 -20.5v-385q0 -126 -66.5 -197t-193.5 -71q-126 0 -193 71.5t-67 196.5v385zM362 735.5q-15 14.5 -33 43.5
q-13 22 -23.5 33.5t-26.5 11.5q-22 0 -36.5 -21t-16.5 -63q-1 -7 -6 -11.5t-12 -4.5t-12.5 6t-4.5 13q4 53 28 85.5t64 32.5q27 0 42.5 -14.5t32.5 -43.5q14 -23 24 -33.5t26 -10.5q22 0 36.5 20.5t16.5 62.5q1 7 6 11.5t12 4.5t12.5 -5.5t4.5 -13.5q-4 -53 -28 -85.5
t-63 -32.5q-28 0 -43 14.5z" />
    <glyph glyph-name="utilde" unicode="&#x169;" horiz-adv-x="540" 
d="M451.5 478.5q7.5 -7.5 7.5 -18.5v-437q0 -10 -7.5 -18t-18.5 -8q-10 0 -18 8t-8 18v48q-32 -36 -78 -59.5t-96 -23.5q-76 0 -114 37.5t-38 117.5v317q0 11 8 18.5t18 7.5q11 0 18.5 -7.5t7.5 -18.5v-305q0 -67 30 -93.5t87 -26.5q45 0 88.5 23t68.5 57v345q0 11 8 18.5
t18 7.5q11 0 18.5 -7.5zM289 588.5q-15 14.5 -33 43.5q-13 22 -23.5 33.5t-26.5 11.5q-22 0 -36.5 -21t-16.5 -63q-1 -7 -6 -11.5t-12 -4.5t-12.5 6t-4.5 13q4 53 28 85.5t64 32.5q27 0 42.5 -14.5t32.5 -43.5q14 -23 24 -33.5t26 -10.5q22 0 36.5 20.5t16.5 62.5
q1 7 6 11.5t12 4.5t12.5 -5.5t4.5 -13.5q-4 -53 -28 -85.5t-63 -32.5q-28 0 -43 14.5z" />
    <glyph glyph-name="Umacron" unicode="&#x16a;" horiz-adv-x="686" 
d="M83 641q0 12 8.5 20.5t20.5 8.5t20.5 -8.5t8.5 -20.5v-384q0 -102 52.5 -159.5t149.5 -57.5q98 0 150 57t52 160v384q0 12 8.5 20.5t20.5 8.5q13 0 21 -8.5t8 -20.5v-385q0 -126 -66.5 -197t-193.5 -71q-126 0 -193 71.5t-67 196.5v385zM197.5 749.5q-5.5 5.5 -5.5 12.5
q0 8 5.5 13.5t13.5 5.5h263q8 0 13.5 -5.5t5.5 -13.5q0 -7 -5.5 -12.5t-13.5 -5.5h-263q-8 0 -13.5 5.5z" />
    <glyph glyph-name="umacron" unicode="&#x16b;" horiz-adv-x="540" 
d="M451.5 478.5q7.5 -7.5 7.5 -18.5v-437q0 -10 -7.5 -18t-18.5 -8q-10 0 -18 8t-8 18v48q-32 -36 -78 -59.5t-96 -23.5q-76 0 -114 37.5t-38 117.5v317q0 11 8 18.5t18 7.5q11 0 18.5 -7.5t7.5 -18.5v-305q0 -67 30 -93.5t87 -26.5q45 0 88.5 23t68.5 57v345q0 11 8 18.5
t18 7.5q11 0 18.5 -7.5zM124.5 602.5q-5.5 5.5 -5.5 12.5q0 8 5.5 13.5t13.5 5.5h263q8 0 13.5 -5.5t5.5 -13.5q0 -7 -5.5 -12.5t-13.5 -5.5h-263q-8 0 -13.5 5.5z" />
    <glyph glyph-name="Ubreve" unicode="&#x16c;" horiz-adv-x="686" 
d="M83 641q0 12 8.5 20.5t20.5 8.5t20.5 -8.5t8.5 -20.5v-384q0 -102 52.5 -159.5t149.5 -57.5q98 0 150 57t52 160v384q0 12 8.5 20.5t20.5 8.5q13 0 21 -8.5t8 -20.5v-385q0 -126 -66.5 -197t-193.5 -71q-126 0 -193 71.5t-67 196.5v385zM253 733.5q-43 19.5 -76 55.5
q-4 5 -4 13t5.5 13.5t13.5 5.5q9 0 14 -6q26 -30 61 -46.5t76 -16.5q82 0 137 63q3 6 14 6q7 0 13 -5.5t6 -13.5q0 -6 -5 -13q-32 -36 -74 -55.5t-91 -19.5q-47 0 -90 19.5z" />
    <glyph glyph-name="ubreve" unicode="&#x16d;" horiz-adv-x="540" 
d="M451.5 478.5q7.5 -7.5 7.5 -18.5v-437q0 -10 -7.5 -18t-18.5 -8q-10 0 -18 8t-8 18v48q-32 -36 -78 -59.5t-96 -23.5q-76 0 -114 37.5t-38 117.5v317q0 11 8 18.5t18 7.5q11 0 18.5 -7.5t7.5 -18.5v-305q0 -67 30 -93.5t87 -26.5q45 0 88.5 23t68.5 57v345q0 11 8 18.5
t18 7.5q11 0 18.5 -7.5zM180 586.5q-43 19.5 -76 55.5q-4 5 -4 13t5.5 13.5t13.5 5.5q9 0 14 -6q26 -30 61 -46.5t76 -16.5q82 0 137 63q3 6 14 6q7 0 13 -5.5t6 -13.5q0 -6 -5 -13q-32 -36 -74 -55.5t-91 -19.5q-47 0 -90 19.5z" />
    <glyph glyph-name="Uring" unicode="&#x16e;" horiz-adv-x="686" 
d="M83 641q0 12 8.5 20.5t20.5 8.5t20.5 -8.5t8.5 -20.5v-384q0 -102 52.5 -159.5t149.5 -57.5q98 0 150 57t52 160v384q0 12 8.5 20.5t20.5 8.5q13 0 21 -8.5t8 -20.5v-385q0 -126 -66.5 -197t-193.5 -71q-126 0 -193 71.5t-67 196.5v385zM276 878.5q28 28.5 68 28.5
q39 0 66.5 -28.5t27.5 -67.5q0 -40 -27.5 -68t-66.5 -28q-40 0 -68 28t-28 68q0 39 28 67.5zM388.5 856q-18.5 19 -44.5 19t-45 -19t-19 -45t19 -45t45 -19t44.5 19t18.5 45t-18.5 45z" />
    <glyph glyph-name="uring" unicode="&#x16f;" horiz-adv-x="540" 
d="M451.5 478.5q7.5 -7.5 7.5 -18.5v-437q0 -10 -7.5 -18t-18.5 -8q-10 0 -18 8t-8 18v48q-32 -36 -78 -59.5t-96 -23.5q-76 0 -114 37.5t-38 117.5v317q0 11 8 18.5t18 7.5q11 0 18.5 -7.5t7.5 -18.5v-305q0 -67 30 -93.5t87 -26.5q45 0 88.5 23t68.5 57v345q0 11 8 18.5
t18 7.5q11 0 18.5 -7.5zM203 731.5q28 28.5 68 28.5q39 0 66.5 -28.5t27.5 -67.5q0 -40 -27.5 -68t-66.5 -28q-40 0 -68 28t-28 68q0 39 28 67.5zM315.5 709q-18.5 19 -44.5 19t-45 -19t-19 -45t19 -45t45 -19t44.5 19t18.5 45t-18.5 45z" />
    <glyph glyph-name="Uhungarumlaut" unicode="&#x170;" horiz-adv-x="686" 
d="M83 641q0 12 8.5 20.5t20.5 8.5t20.5 -8.5t8.5 -20.5v-384q0 -102 52.5 -159.5t149.5 -57.5q98 0 150 57t52 160v384q0 12 8.5 20.5t20.5 8.5q13 0 21 -8.5t8 -20.5v-385q0 -126 -66.5 -197t-193.5 -71q-126 0 -193 71.5t-67 196.5v385zM265 721.5q-5 4.5 -5 10.5t4 11
l83 121q5 10 17 10q8 0 14.5 -6.5t6.5 -15.5q0 -7 -4 -12l-92 -115q-5 -8 -13 -8q-6 0 -11 4.5zM404 721.5q-5 4.5 -5 10.5t4 11l83 121q5 10 17 10q8 0 14.5 -6.5t6.5 -15.5q0 -7 -4 -12l-92 -115q-5 -8 -13 -8q-6 0 -11 4.5z" />
    <glyph glyph-name="uhungarumlaut" unicode="&#x171;" horiz-adv-x="540" 
d="M451.5 478.5q7.5 -7.5 7.5 -18.5v-437q0 -10 -7.5 -18t-18.5 -8q-10 0 -18 8t-8 18v48q-32 -36 -78 -59.5t-96 -23.5q-76 0 -114 37.5t-38 117.5v317q0 11 8 18.5t18 7.5q11 0 18.5 -7.5t7.5 -18.5v-305q0 -67 30 -93.5t87 -26.5q45 0 88.5 23t68.5 57v345q0 11 8 18.5
t18 7.5q11 0 18.5 -7.5zM192 574.5q-5 4.5 -5 10.5t4 11l83 121q5 10 17 10q8 0 14.5 -6.5t6.5 -15.5q0 -7 -4 -12l-92 -115q-5 -8 -13 -8q-6 0 -11 4.5zM331 574.5q-5 4.5 -5 10.5t4 11l83 121q5 10 17 10q8 0 14.5 -6.5t6.5 -15.5q0 -7 -4 -12l-92 -115q-5 -8 -13 -8
q-6 0 -11 4.5z" />
    <glyph glyph-name="Uogonek" unicode="&#x172;" horiz-adv-x="686" 
d="M150 59.5q-67 71.5 -67 196.5v385q0 12 8.5 20.5t20.5 8.5t20.5 -8.5t8.5 -20.5v-384q0 -102 52.5 -159.5t149.5 -57.5q98 0 150 57t52 160v384q0 12 8.5 20.5t20.5 8.5q13 0 21 -8.5t8 -20.5v-385q0 -95 -38 -158.5t-111 -91.5q-55 -21 -86 -49t-31 -59q0 -20 12.5 -32
t34.5 -12q10 0 22 5l5 1q8 0 14 -5.5t6 -14.5q0 -13 -12 -18q-21 -8 -43 -8q-38 0 -65 19.5t-27 53.5q0 28 21.5 54.5t58.5 47.5q-7 -1 -21 -1q-126 0 -193 71.5z" />
    <glyph glyph-name="uogonek" unicode="&#x173;" horiz-adv-x="540" 
d="M459 23q0 -6 -4 -14q2 -1 1.5 -3t-4.5 -4q-44 -28 -67.5 -52t-23.5 -52q0 -20 12.5 -32t34.5 -12q12 0 20.5 3.5t11.5 3.5q8 0 13.5 -5.5t5.5 -13.5q0 -13 -11 -18q-24 -10 -48 -10q-38 0 -65 19.5t-27 53.5t30 64.5t78 52.5q-9 8 -9 19v48q-32 -36 -78 -59.5t-96 -23.5
q-76 0 -114 37.5t-38 117.5v317q0 11 8 18.5t18 7.5q11 0 18.5 -7.5t7.5 -18.5v-305q0 -67 30 -93.5t87 -26.5q45 0 88.5 23t68.5 57v345q0 11 8 18.5t18 7.5q11 0 18.5 -7.5t7.5 -18.5v-437z" />
    <glyph glyph-name="Wcircumflex" unicode="&#x174;" horiz-adv-x="867" 
d="M601 5.5q-11 8.5 -15 21.5l-152 546l-153 -546q-3 -13 -14 -21.5t-25 -8.5t-25.5 8.5t-14.5 21.5l-172 602q-1 5 -1 11q0 12 9 21t21 9q10 0 18.5 -6.5t10.5 -16.5l156 -567l158 566q3 11 11.5 17.5t20.5 6.5q11 0 20 -7t11 -17l158 -566l156 567q2 10 10.5 16.5
t18.5 6.5q13 0 22 -9t9 -22l-2 -10l-171 -602q-4 -14 -15 -22t-25 -8t-25 8.5zM436 836l-86 -114q-6 -6 -12 -6q-7 0 -12 5t-5 12q0 3 2 9l80 116q4 7 12 11t16 4h9q8 0 16.5 -4t12.5 -11l79 -116q3 -4 3 -9q0 -7 -5.5 -12t-12.5 -5q-6 0 -12 6z" />
    <glyph glyph-name="wcircumflex" unicode="&#x175;" horiz-adv-x="719" 
d="M500.5 3.5q-8.5 6.5 -11.5 16.5l-129 393l-130 -393q-3 -10 -11.5 -16.5t-19.5 -6.5t-19.5 6t-11.5 17l-140 430q-2 8 -2 10q0 11 7.5 18.5t18.5 7.5q9 0 16 -5t10 -14l123 -394l131 393q2 9 10 14.5t18 5.5t17.5 -5.5t9.5 -14.5l131 -393l124 394q2 9 9 14t16 5
q11 0 18.5 -8t7.5 -19l-2 -11l-140 -428q-3 -11 -11.5 -17t-19.5 -6t-19.5 6.5zM362 683l-86 -114q-6 -6 -12 -6q-7 0 -12 5t-5 12q0 3 2 9l80 116q4 7 12 11t16 4h9q8 0 16.5 -4t12.5 -11l79 -116q3 -4 3 -9q0 -7 -5.5 -12t-12.5 -5q-6 0 -12 6z" />
    <glyph glyph-name="Ycircumflex" unicode="&#x176;" horiz-adv-x="618" 
d="M575 626l-237 -340v-260q0 -11 -8.5 -20t-20.5 -9t-20.5 9t-8.5 20v259l-237 340q-5 7 -5 17q0 11 8.5 19.5t20.5 8.5q17 0 24 -12l218 -321l218 321q8 12 24 12q12 0 20.5 -8.5t8.5 -19.5t-5 -16zM311 836l-86 -114q-6 -6 -12 -6q-7 0 -12 5t-5 12q0 3 2 9l80 116
q4 7 12 11t16 4h9q8 0 16.5 -4t12.5 -11l79 -116q3 -4 3 -9q0 -7 -5.5 -12t-12.5 -5q-6 0 -12 6z" />
    <glyph glyph-name="ycircumflex" unicode="&#x177;" horiz-adv-x="481" 
d="M57.5 -153q7.5 7 17.5 7q3 0 10 -1.5t15 -1.5q25 0 42 13t31 46l38 86l-189 451q-2 5 -2 12q0 11 7.5 19t18.5 8q8 0 15 -4.5t10 -12.5l170 -408l169 408q2 7 9 12t15 5q12 0 19.5 -8t7.5 -19q0 -4 -3 -13l-234 -552q-37 -90 -124 -90q-9 0 -27 2q-10 1 -16.5 8t-6.5 16
q0 10 7.5 17zM243 689l-86 -114q-6 -6 -12 -6q-7 0 -12 5t-5 12q0 3 2 9l80 116q4 7 12 11t16 4h9q8 0 16.5 -4t12.5 -11l79 -116q3 -4 3 -9q0 -7 -5.5 -12t-12.5 -5q-6 0 -12 6z" />
    <glyph glyph-name="Ydieresis" unicode="&#x178;" horiz-adv-x="618" 
d="M575 626l-237 -340v-260q0 -11 -8.5 -20t-20.5 -9t-20.5 9t-8.5 20v259l-237 340q-5 7 -5 17q0 11 8.5 19.5t20.5 8.5q17 0 24 -12l218 -321l218 321q8 12 24 12q12 0 20.5 -8.5t8.5 -19.5t-5 -16zM181 746q-11 11 -11 27q0 15 11 26t26 11t26 -11t11 -26q0 -16 -11 -27
t-26 -11t-26 11zM385 746q-11 11 -11 27q0 15 11 26t26 11t26.5 -11t11.5 -26q0 -16 -11.5 -27t-26.5 -11t-26 11z" />
    <glyph glyph-name="Zacute" unicode="&#x179;" horiz-adv-x="581" 
d="M57.5 10q-10.5 10 -10.5 25q0 10 7 19l398 561h-379q-10 0 -18 8t-8 18q0 11 8 18.5t18 7.5h419q14 0 24.5 -10t10.5 -24q0 -11 -7 -20l-398 -561h386q11 0 18.5 -7.5t7.5 -18.5q0 -10 -7.5 -18t-18.5 -8h-426q-14 0 -24.5 10zM299 720q-6 0 -10.5 4.5t-4.5 10.5
q0 4 5 11l127 118q6 6 14 6t14 -6t6 -14q0 -10 -7 -15l-133 -111q-4 -4 -11 -4z" />
    <glyph glyph-name="zacute" unicode="&#x17a;" horiz-adv-x="469" 
d="M61.5 8.5q-8.5 8.5 -8.5 20.5q0 10 6 17l283 391h-266q-9 0 -16 6.5t-7 15.5q0 10 7 17t16 7h307q12 0 20.5 -8t8.5 -21q0 -7 -6 -17l-286 -391h273q9 0 16 -6.5t7 -16.5t-7 -16.5t-16 -6.5h-311q-12 0 -20.5 8.5zM243 573q-6 0 -10.5 4.5t-4.5 10.5q0 4 5 11l127 118
q6 6 14 6t14 -6t6 -14q0 -10 -7 -15l-133 -111q-4 -4 -11 -4z" />
    <glyph glyph-name="Zdotaccent" unicode="&#x17b;" horiz-adv-x="581" 
d="M57.5 10q-10.5 10 -10.5 25q0 10 7 19l398 561h-379q-10 0 -18 8t-8 18q0 11 8 18.5t18 7.5h419q14 0 24.5 -10t10.5 -24q0 -11 -7 -20l-398 -561h386q11 0 18.5 -7.5t7.5 -18.5q0 -10 -7.5 -18t-18.5 -8h-426q-14 0 -24.5 10zM265 797q11 11 27 11q15 0 26 -11t11 -27
t-11 -27t-26 -11q-16 0 -27 11t-11 27t11 27z" />
    <glyph glyph-name="zdotaccent" unicode="&#x17c;" horiz-adv-x="469" 
d="M61.5 8.5q-8.5 8.5 -8.5 20.5q0 10 6 17l283 391h-266q-9 0 -16 6.5t-7 15.5q0 10 7 17t16 7h307q12 0 20.5 -8t8.5 -21q0 -7 -6 -17l-286 -391h273q9 0 16 -6.5t7 -16.5t-7 -16.5t-16 -6.5h-311q-12 0 -20.5 8.5zM209 650q11 11 27 11q15 0 26 -11t11 -27t-11 -27
t-26 -11q-16 0 -27 11t-11 27t11 27z" />
    <glyph glyph-name="Zcaron" unicode="&#x17d;" horiz-adv-x="581" 
d="M57.5 10q-10.5 10 -10.5 25q0 10 7 19l398 561h-379q-10 0 -18 8t-8 18q0 11 8 18.5t18 7.5h419q14 0 24.5 -10t10.5 -24q0 -11 -7 -20l-398 -561h386q11 0 18.5 -7.5t7.5 -18.5q0 -10 -7.5 -18t-18.5 -8h-426q-14 0 -24.5 10zM399.5 868q5.5 -5 5.5 -12q0 -5 -3 -8
l-79 -116q-4 -7 -12.5 -11.5t-16.5 -4.5h-9q-9 0 -16.5 4.5t-11.5 11.5l-80 116q-2 4 -2 8q0 7 5 12t12 5t12 -6l86 -113l85 113q4 6 12 6q7 0 12.5 -5z" />
    <glyph glyph-name="zcaron" unicode="&#x17e;" horiz-adv-x="469" 
d="M61.5 8.5q-8.5 8.5 -8.5 20.5q0 10 6 17l283 391h-266q-9 0 -16 6.5t-7 15.5q0 10 7 17t16 7h307q12 0 20.5 -8t8.5 -21q0 -7 -6 -17l-286 -391h273q9 0 16 -6.5t7 -16.5t-7 -16.5t-16 -6.5h-311q-12 0 -20.5 8.5zM343.5 721q5.5 -5 5.5 -12q0 -5 -3 -8l-79 -116
q-4 -7 -12.5 -11.5t-16.5 -4.5h-9q-9 0 -16.5 4.5t-11.5 11.5l-80 116q-2 4 -2 8q0 7 5 12t12 5t12 -6l86 -113l85 113q4 6 12 6q7 0 12.5 -5z" />
    <glyph glyph-name="longs" unicode="&#x17f;" horiz-adv-x="265" 
d="M286.5 662q4.5 -6 4.5 -13q0 -10 -6 -16t-16 -6q-5 0 -15.5 2.5t-19.5 2.5q-41 0 -62.5 -27t-21.5 -78v-504q0 -10 -7.5 -18t-18.5 -8q-10 0 -18 8t-8 18v414h-60q-9 0 -16 6.5t-7 16.5t7 16.5t16 6.5h60v44q0 71 35 110.5t96 39.5q25 0 45 -7q8 -2 12.5 -8z" />
    <glyph glyph-name="uni018F" unicode="&#x18f;" horiz-adv-x="748" 
d="M522.5 634.5q77.5 -43.5 122.5 -122t45 -179.5t-43 -180t-117.5 -122.5t-166.5 -43.5q-94 0 -163.5 41t-109 115.5t-45.5 173.5q-1 15 7.5 23t23.5 8h553q-3 82 -40.5 145t-99 98t-137.5 35q-56 0 -107 -21t-88 -58q-7 -7 -19 -7q-11 0 -18.5 7.5t-7.5 19.5t7 18
q95 93 233 93q93 0 170.5 -43.5zM490 71.5q58 32.5 94 91t42 134.5h-520q6 -74 37.5 -132t86.5 -92t130 -34q72 0 130 32.5z" />
    <glyph glyph-name="uni0192" unicode="&#x192;" horiz-adv-x="422" 
d="M427 637q0 -10 -7.5 -18t-18.5 -8q-6 0 -12 3q-16 11 -36 11q-41 0 -70.5 -27.5t-40.5 -74.5l-47 -214h129q10 0 17 -7t7 -17t-7 -17.5t-17 -7.5h-140l-89 -401q-2 -10 -9.5 -16.5t-18.5 -6.5q-12 0 -20 8.5t-8 19.5l2 9l85 387h-53q-10 0 -17 7.5t-7 17.5t7 17t17 7h64
l48 221q16 68 59.5 107.5t104.5 39.5q39 0 65 -17q13 -8 13 -23z" />
    <glyph glyph-name="uni019D" unicode="&#x19d;" horiz-adv-x="699" 
d="M567 661.5q8 8.5 20 8.5t20.5 -8.5t8.5 -20.5v-608q0 -14 -10.5 -25t-24.5 -11q-20 0 -30 15l-411 564v-567q0 -100 -57 -152.5t-145 -52.5q-16 0 -31 3q-10 0 -17.5 7.5t-7.5 18.5t8.5 19t18.5 7q15 -3 27 -3q67 0 107 42.5t40 110.5v623q0 16 10.5 27t26.5 11
q20 0 31 -16l408 -555v542q0 12 8 20.5z" />
    <glyph glyph-name="Ohorn" unicode="&#x1a0;" horiz-adv-x="764" 
d="M692 594q-18 -33 -45 -54q59 -88 59 -207q0 -97 -40.5 -176t-114.5 -124t-169 -45q-96 0 -169.5 45t-114 124t-40.5 176t40.5 176t114 124t169.5 45q77 0 139.5 -29t105.5 -82q19 16 31.5 38.5t14.5 42.5l-10 -1q-15 0 -25 10.5t-10 26.5q0 15 10.5 26t26.5 11
q19 0 32 -15t13 -42q0 -37 -18 -70zM520 78q60 38 93 104.5t33 150.5q0 85 -32.5 151.5t-92.5 104t-139 37.5q-80 0 -139.5 -37.5t-92 -104t-32.5 -151.5q0 -84 32.5 -150.5t92.5 -104.5t139 -38q78 0 138 38z" />
    <glyph glyph-name="ohorn" unicode="&#x1a1;" 
d="M503.5 335q14.5 -44 14.5 -93q0 -71 -28.5 -129t-81.5 -91.5t-123 -33.5q-69 0 -121.5 33.5t-81.5 91.5t-29 129t29 128.5t81.5 91t121.5 33.5q91 0 154 -58q17 16 28 37.5t13 39.5l-10 -1q-15 0 -25 10.5t-10 26.5q0 15 10.5 26t26.5 11q19 0 32 -15t13 -42
q0 -33 -15.5 -64.5t-39.5 -52.5q27 -34 41.5 -78zM380 63.5q40 28.5 61 76t21 102.5t-21 102t-61 75.5t-95 28.5q-54 0 -94 -28.5t-61 -75.5t-21 -102t21 -102.5t61 -76t94 -28.5q55 0 95 28.5z" />
    <glyph glyph-name="Uhorn" unicode="&#x1af;" horiz-adv-x="686" 
d="M689 637q-32 -42 -86 -61v-320q0 -126 -66.5 -197t-193.5 -71q-126 0 -193 71.5t-67 196.5v385q0 12 8.5 20.5t20.5 8.5t20.5 -8.5t8.5 -20.5v-384q0 -102 52.5 -159.5t149.5 -57.5q98 0 150 57t52 160v384q0 12 8.5 20.5t20.5 8.5q13 0 21 -8.5t8 -20.5v-31q34 15 57 44
t24 60q-1 -1 -3.5 -1.5t-5.5 -0.5q-16 0 -26 11t-10 27q0 15 10.5 26t26.5 11q19 0 32 -15.5t13 -42.5q0 -50 -32 -92z" />
    <glyph glyph-name="uhorn" unicode="&#x1b0;" horiz-adv-x="540" 
d="M530.5 449.5q-26.5 -38.5 -71.5 -61.5v-365q0 -10 -7.5 -18t-18.5 -8q-10 0 -18 8t-8 18v48q-32 -36 -78 -59.5t-96 -23.5q-76 0 -114 37.5t-38 117.5v317q0 11 8 18.5t18 7.5q11 0 18.5 -7.5t7.5 -18.5v-305q0 -67 30 -93.5t87 -26.5q45 0 88.5 23t68.5 57v345
q0 11 8 18.5t18 7.5q11 0 18.5 -7.5t7.5 -18.5v-36q27 17 43.5 42t17.5 51l-9 -1q-16 0 -26 10.5t-10 26.5q0 15 11 26t27 11q19 0 31.5 -15t12.5 -42q0 -45 -26.5 -83.5z" />
    <glyph glyph-name="Gcaron" unicode="&#x1e6;" horiz-adv-x="711" 
d="M649 300v-179q0 -25 -16 -38q-45 -45 -106 -70.5t-131 -25.5q-93 0 -170.5 44t-122.5 122.5t-45 179.5t45 179.5t122.5 122t170.5 43.5q138 0 233 -93q7 -6 7 -18t-7.5 -19.5t-19.5 -7.5q-11 0 -18 7q-37 37 -88 58t-107 21q-78 0 -141.5 -37t-100 -104t-36.5 -152
q0 -84 36.5 -151.5t100 -105t141.5 -37.5q61 0 112 24t84 57v160h-230q-11 0 -18.5 7.5t-7.5 18.5q0 10 7.5 17.5t18.5 7.5h256q31 0 31 -31zM503.5 868q5.5 -5 5.5 -12q0 -5 -3 -8l-79 -116q-4 -7 -12.5 -11.5t-16.5 -4.5h-9q-9 0 -16.5 4.5t-11.5 11.5l-80 116q-2 4 -2 8
q0 7 5 12t12 5t12 -6l86 -113l85 113q4 6 12 6q7 0 12.5 -5z" />
    <glyph glyph-name="gcaron" unicode="&#x1e7;" horiz-adv-x="570" 
d="M482.5 478.5q7.5 -7.5 7.5 -18.5v-455q0 -104 -60.5 -152.5t-157.5 -48.5q-58 0 -97.5 12.5t-76.5 46.5q-9 6 -9 19q0 10 7 17t17 7q9 0 15 -6q29 -27 63 -39t81 -12q72 0 118.5 38.5t46.5 116.5v75q-29 -39 -73.5 -64t-94.5 -25q-64 0 -113 31t-76 88t-27 133
q0 75 27 132.5t76 89t113 31.5q50 0 94 -23.5t74 -65.5v54q0 11 8 18.5t19 7.5t18.5 -7.5zM371 62.5q44 25.5 66 62.5v235q-22 37 -66 62.5t-93 25.5q-78 0 -123.5 -58t-45.5 -148t45.5 -147.5t123.5 -57.5q49 0 93 25.5zM395.5 721q5.5 -5 5.5 -12q0 -5 -3 -8l-79 -116
q-4 -7 -12.5 -11.5t-16.5 -4.5h-9q-9 0 -16.5 4.5t-11.5 11.5l-80 116q-2 4 -2 8q0 7 5 12t12 5t12 -6l86 -113l85 113q4 6 12 6q7 0 12.5 -5z" />
    <glyph glyph-name="uni01EA" unicode="&#x1ea;" horiz-adv-x="764" 
d="M386 -53.5q-20 -22.5 -20 -48.5q0 -20 12.5 -32t34.5 -12q12 0 20.5 3.5t11.5 3.5q8 0 13.5 -5.5t5.5 -13.5q0 -13 -11 -18q-24 -10 -48 -10q-38 0 -65 19.5t-27 53.5q0 28 21 54t56 47h-8q-96 0 -169.5 45t-114 124t-40.5 176t40.5 176t114 124t169.5 45q95 0 169 -45
t114.5 -124t40.5 -176q0 -87 -32.5 -159t-92 -119.5t-138.5 -61.5q-37 -24 -57 -46.5zM150.5 182.5q32.5 -66.5 92.5 -104.5t139 -38q78 0 138 38t93 104.5t33 150.5q0 85 -32.5 151.5t-92.5 104t-139 37.5q-80 0 -139.5 -37.5t-92 -104t-32.5 -151.5q0 -84 32.5 -150.5z
" />
    <glyph glyph-name="uni01EB" unicode="&#x1eb;" 
d="M279 -53.5q-20 -22.5 -20 -48.5q0 -20 12.5 -32t34.5 -12q12 0 20.5 3.5t11.5 3.5q8 0 13.5 -5.5t5.5 -13.5q0 -13 -11 -18q-24 -10 -48 -10q-38 0 -65 19.5t-27 53.5q0 28 21 54t56 47q-68 0 -120.5 34t-81 92t-28.5 128q0 71 29 128.5t81.5 91t121.5 33.5
q70 0 123 -33.5t81.5 -91t28.5 -128.5q0 -94 -49 -162.5t-133 -86.5q-37 -24 -57 -46.5zM130 139.5q21 -47.5 61 -76t94 -28.5q55 0 95 28.5t61 76t21 102.5t-21 102t-61 75.5t-95 28.5q-54 0 -94 -28.5t-61 -75.5t-21 -102t21 -102.5z" />
    <glyph glyph-name="Aringacute" unicode="&#x1fa;" horiz-adv-x="647" 
d="M619 27q0 -12 -8.5 -21t-21.5 -9q-10 0 -17.5 5.5t-10.5 13.5l-59 148h-357l-59 -148q-3 -8 -11 -13.5t-17 -5.5q-13 0 -21.5 9t-8.5 21q0 5 3 12l246 600q5 14 18 22.5t28 8.5t28 -8.5t19 -22.5l246 -600q3 -9 3 -12zM166 216h315l-158 395zM256 878.5q28 28.5 68 28.5
q39 0 66.5 -28.5t27.5 -67.5q0 -40 -27.5 -68t-66.5 -28q-40 0 -68 28t-28 68q0 39 28 67.5zM368.5 856q-18.5 19 -44.5 19t-45 -19t-19 -45t19 -45t45 -19t44.5 19t18.5 45t-18.5 45zM330 932q-6 0 -10.5 4.5t-4.5 10.5q0 4 5 11l127 118q6 6 14 6t14 -6t6 -14
q0 -10 -7 -15l-133 -111q-4 -4 -11 -4z" />
    <glyph glyph-name="aringacute" unicode="&#x1fb;" horiz-adv-x="521" 
d="M391 456q49 -39 49 -116v-317q0 -10 -7.5 -18t-18.5 -8q-10 0 -18 8t-8 18v36q-61 -71 -164 -71q-43 0 -82 19t-63 55.5t-24 86.5t24 86.5t63 55t82 18.5q102 0 164 -69v98q0 52 -37 81.5t-93 29.5q-40 0 -73 -13.5t-63 -43.5q-7 -5 -15 -5q-10 0 -16.5 6.5t-6.5 16.5
q0 11 8 17q36 35 77 51.5t95 16.5q78 0 127 -39zM325 46q38 17 63 49v106q-25 33 -63.5 50t-82.5 17q-59 0 -95.5 -34t-36.5 -86t36.5 -85.5t95.5 -33.5q45 0 83 17zM198 731.5q28 28.5 68 28.5q39 0 66.5 -28.5t27.5 -67.5q0 -40 -27.5 -68t-66.5 -28q-40 0 -68 28t-28 68
q0 39 28 67.5zM310.5 709q-18.5 19 -44.5 19t-45 -19t-19 -45t19 -45t45 -19t44.5 19t18.5 45t-18.5 45zM272 785q-6 0 -10.5 4.5t-4.5 10.5q0 4 5 11l127 118q6 6 14 6t14 -6t6 -14q0 -10 -7 -15l-133 -111q-4 -4 -11 -4z" />
    <glyph glyph-name="AEacute" unicode="&#x1fc;" horiz-adv-x="939" 
d="M874.5 44.5q7.5 -7.5 7.5 -18.5q0 -10 -7.5 -18t-18.5 -8h-368q-15 0 -23.5 8.5t-8.5 22.5v133h-276l-95 -154q-8 -13 -24 -13q-11 0 -19 8t-8 20q0 4 4 14l383 607q13 21 38 21h397q11 0 18.5 -7.5t7.5 -18.5q0 -10 -7.5 -18t-18.5 -8h-342v-247h335q11 0 18.5 -7.5
t7.5 -18.5q0 -10 -7.5 -18t-18.5 -8h-335v-264h342q11 0 18.5 -7.5zM212 216h244v396zM492 720q-6 0 -10.5 4.5t-4.5 10.5q0 4 5 11l127 118q6 6 14 6t14 -6t6 -14q0 -10 -7 -15l-133 -111q-4 -4 -11 -4z" />
    <glyph glyph-name="aeacute" unicode="&#x1fd;" horiz-adv-x="897" 
d="M489.5 128q21.5 -44 60 -69.5t89.5 -25.5q76 0 135 54q5 5 13 5q9 0 15.5 -6.5t6.5 -15.5q0 -7 -8 -17q-70 -65 -162 -65q-67 0 -118 33t-78 96q-23 -59 -75.5 -94t-119.5 -35q-84 0 -138.5 43t-54.5 118q0 50 24.5 86.5t65.5 55t89 18.5q111 0 179 -67v96q0 53 -38.5 82
t-102.5 29q-45 0 -81 -13.5t-69 -44.5q-7 -5 -14 -5q-10 0 -17 7t-7 17q0 11 9 18q73 67 187 67q63 0 111.5 -27.5t58.5 -87.5q26 51 72.5 83t107.5 32q67 0 115.5 -33.5t73.5 -88.5t25 -119q0 -14 -8 -21.5t-23 -7.5h-348q3 -53 24.5 -97zM773.5 352.5q-17.5 42.5 -54.5 70
t-91 27.5q-50 0 -86.5 -27.5t-55.5 -70t-21 -86.5h326q0 44 -17.5 86.5zM344 250.5q-42 17.5 -90 17.5q-65 0 -104.5 -33t-39.5 -84q0 -52 39.5 -85t104.5 -33q46 0 82.5 21.5t56.5 56t20 73.5v16q-27 33 -69 50.5zM449 573q-6 0 -10.5 4.5t-4.5 10.5q0 4 5 11l127 118
q6 6 14 6t14 -6t6 -14q0 -10 -7 -15l-133 -111q-4 -4 -11 -4z" />
    <glyph glyph-name="Oslashacute" unicode="&#x1fe;" horiz-adv-x="764" 
d="M673.5 491.5q32.5 -72.5 32.5 -158.5q0 -97 -40.5 -176t-114.5 -124t-169 -45q-94 0 -168 44l-16 -25q-5 -10 -17 -10q-9 0 -15 6.5t-6 15.5q0 8 3 11l17 26q-58 47 -90 119t-32 158q0 97 40.5 176t114 124t169.5 45q92 0 165 -42l15 24q7 10 18 10q9 0 15 -6t6 -15
q0 -7 -3 -12l-16 -25q59 -48 91.5 -120.5zM141.5 202q23.5 -59 67.5 -99l309 487q-61 36 -136 36q-80 0 -139.5 -37.5t-92 -104t-32.5 -151.5q0 -72 23.5 -131zM520 78q60 38 93 104.5t33 150.5q0 73 -24.5 133t-69.5 99l-309 -487q62 -38 139 -38q78 0 138 38zM390 720
q-6 0 -10.5 4.5t-4.5 10.5q0 4 5 11l127 118q6 6 14 6t14 -6t6 -14q0 -10 -7 -15l-133 -111q-4 -4 -11 -4z" />
    <glyph glyph-name="oslashacute" unicode="&#x1ff;" 
d="M499.5 347q18.5 -49 18.5 -105q0 -71 -28.5 -129t-81.5 -91.5t-123 -33.5q-82 0 -140 47l-24 -31q-5 -7 -14 -7q-7 0 -12 5t-5 12t4 11l26 33q-32 35 -49.5 82.5t-17.5 101.5q0 71 29 128.5t81.5 91t121.5 33.5q76 0 136 -42l20 26q5 7 14 7q7 0 12 -5.5t5 -12.5
q0 -3 -1.5 -6t-1.5 -4l-22 -28q34 -34 52.5 -83zM120 166q11 -37 32 -65l238 311q-46 36 -105 36q-54 0 -94 -28.5t-61 -75.5t-21 -102q0 -39 11 -76zM380 63.5q40 28.5 61 76t21 102.5q0 41 -12 79t-35 66l-239 -311q44 -41 109 -41q55 0 95 28.5zM293 573q-6 0 -10.5 4.5
t-4.5 10.5q0 4 5 11l127 118q6 6 14 6t14 -6t6 -14q0 -10 -7 -15l-133 -111q-4 -4 -11 -4z" />
    <glyph glyph-name="uni0218" unicode="&#x218;" horiz-adv-x="581" 
d="M54 97q0 12 8.5 20.5t19.5 8.5t20 -7q81 -79 189 -79q93 0 134.5 40.5t41.5 92.5q0 44 -24.5 71.5t-61.5 42.5t-97 31q-72 20 -114.5 37.5t-72.5 52.5t-30 92q0 53 29.5 93.5t80 62.5t112.5 22q123 0 206 -77q11 -7 11 -21q0 -11 -8.5 -19.5t-20.5 -8.5t-18 7
q-67 67 -173 67q-69 0 -114 -34.5t-45 -88.5q0 -37 23 -60.5t57.5 -37t93.5 -28.5q73 -21 118 -40.5t76.5 -58t31.5 -101.5q0 -47 -23 -90t-76 -71t-138 -28q-70 0 -127.5 23.5t-99.5 64.5q-9 8 -9 21zM249.5 -259q-5.5 5 -5.5 12q0 8 9 15q18 17 29 38t12 40l-10 -1
q-16 0 -26 10.5t-10 27.5q0 16 11 27.5t27 11.5q20 0 33.5 -16t13.5 -43q0 -35 -16.5 -67.5t-41.5 -53.5q-6 -6 -13 -6t-12.5 5z" />
    <glyph glyph-name="uni0219" unicode="&#x219;" horiz-adv-x="459" 
d="M45 68q0 11 7.5 18t17.5 7q9 0 15 -6q27 -25 63 -40t78 -15q60 0 94.5 26.5t34.5 69.5q0 29 -18 47.5t-45 28.5t-72 22q-56 14 -89 26.5t-57 38.5t-24 70q0 57 46.5 95.5t125.5 38.5q98 0 159 -58q8 -8 8 -18q0 -9 -6.5 -16t-16.5 -7q-8 0 -14 6q-24 23 -57 36t-73 13
q-55 0 -88 -24.5t-33 -62.5q0 -26 17 -42t42 -25t70 -20q57 -14 91.5 -28t59.5 -42.5t25 -76.5q0 -62 -47 -102t-134 -40q-53 0 -94.5 14.5t-76.5 47.5q-9 7 -9 18zM185.5 -259q-5.5 5 -5.5 12q0 8 9 15q18 17 29 38t12 40l-10 -1q-16 0 -26 10.5t-10 27.5q0 16 11 27.5
t27 11.5q20 0 33.5 -16t13.5 -43q0 -35 -16.5 -67.5t-41.5 -53.5q-6 -6 -13 -6t-12.5 5z" />
    <glyph glyph-name="uni021A" unicode="&#x21a;" horiz-adv-x="564" 
d="M261.5 6q-8.5 9 -8.5 20v589h-195q-10 0 -18 8t-8 18q0 11 8 18.5t18 7.5h449q11 0 18.5 -7.5t7.5 -18.5q0 -10 -7.5 -18t-18.5 -8h-196v-589q0 -11 -8.5 -20t-20.5 -9t-20.5 9zM246.5 -259q-5.5 5 -5.5 12q0 8 9 15q18 17 29 38t12 40l-10 -1q-16 0 -26 10.5t-10 27.5
q0 16 11 27.5t27 11.5q20 0 33.5 -16t13.5 -43q0 -35 -16.5 -67.5t-41.5 -53.5q-6 -6 -13 -6t-12.5 5z" />
    <glyph glyph-name="uni021B" unicode="&#x21b;" horiz-adv-x="275" 
d="M258.5 43.5q6.5 -6.5 6.5 -16.5q0 -13 -12 -20q-27 -19 -67 -19q-47 0 -71 27.5t-24 77.5v344h-59q-10 0 -17 6.5t-7 16.5t7 16.5t17 6.5h59v109q0 11 8 18.5t19 7.5t18.5 -7.5t7.5 -18.5v-109h77q10 0 17 -6.5t7 -16.5t-7 -16.5t-17 -6.5h-77v-336q0 -30 12.5 -48
t37.5 -18q18 0 30.5 7.5t17.5 7.5q10 0 16.5 -6.5zM105.5 -259q-5.5 5 -5.5 12q0 8 9 15q18 17 29 38t12 40l-10 -1q-16 0 -26 10.5t-10 27.5q0 16 11 27.5t27 11.5q20 0 33.5 -16t13.5 -43q0 -35 -16.5 -67.5t-41.5 -53.5q-6 -6 -13 -6t-12.5 5z" />
    <glyph glyph-name="uni0232" unicode="&#x232;" horiz-adv-x="618" 
d="M575 626l-237 -340v-260q0 -11 -8.5 -20t-20.5 -9t-20.5 9t-8.5 20v259l-237 340q-5 7 -5 17q0 11 8.5 19.5t20.5 8.5q17 0 24 -12l218 -321l218 321q8 12 24 12q12 0 20.5 -8.5t8.5 -19.5t-5 -16zM163.5 749.5q-5.5 5.5 -5.5 12.5q0 8 5.5 13.5t13.5 5.5h263
q8 0 13.5 -5.5t5.5 -13.5q0 -7 -5.5 -12.5t-13.5 -5.5h-263q-8 0 -13.5 5.5z" />
    <glyph glyph-name="uni0233" unicode="&#x233;" horiz-adv-x="481" 
d="M57.5 -153q7.5 7 17.5 7q3 0 10 -1.5t15 -1.5q25 0 42 13t31 46l38 86l-189 451q-2 5 -2 12q0 11 7.5 19t18.5 8q8 0 15 -4.5t10 -12.5l170 -408l169 408q2 7 9 12t15 5q12 0 19.5 -8t7.5 -19q0 -4 -3 -13l-234 -552q-37 -90 -124 -90q-9 0 -27 2q-10 1 -16.5 8t-6.5 16
q0 10 7.5 17zM95.5 602.5q-5.5 5.5 -5.5 12.5q0 8 5.5 13.5t13.5 5.5h263q8 0 13.5 -5.5t5.5 -13.5q0 -7 -5.5 -12.5t-13.5 -5.5h-263q-8 0 -13.5 5.5z" />
    <glyph glyph-name="uni0237" unicode="&#x237;" horiz-adv-x="214" 
d="M-28 -192q-9 2 -14.5 8t-5.5 15t6 16t15 7q3 0 10 -2t18 -2q37 0 58.5 21.5t21.5 66.5v522q0 11 8 18.5t18 7.5q11 0 18.5 -7.5t7.5 -18.5v-522q0 -66 -33.5 -100t-94.5 -34q-18 0 -33 4z" />
    <glyph glyph-name="uni0259" unicode="&#x259;" horiz-adv-x="567" 
d="M483 114q-30 -58 -83 -92t-119 -34q-71 0 -122.5 34.5t-78.5 92.5t-27 129q0 7 8 11t23 4h373q-3 53 -26.5 96.5t-65.5 69t-97 25.5q-84 0 -145 -55q-5 -4 -13 -4q-9 0 -15.5 6.5t-6.5 15.5q0 8 9 17q37 32 79.5 48.5t95.5 16.5q70 0 124.5 -32.5t85.5 -90t31 -131.5
q0 -69 -30 -127zM375 60.5q39 27.5 59.5 69.5t22.5 87h-351q0 -44 19.5 -86.5t59.5 -70t97 -27.5q54 0 93 27.5z" />
    <glyph glyph-name="uni0272" unicode="&#x272;" horiz-adv-x="540" 
d="M459 338v-315q0 -10 -7.5 -18t-18.5 -8q-10 0 -18 8t-8 18v304q0 66 -30 93.5t-87 27.5q-45 0 -89 -24t-68 -59v-427q0 -66 -33.5 -100t-94.5 -34q-18 0 -33 4q-9 1 -14.5 7.5t-5.5 14.5q0 11 7.5 18t17.5 6q14 -4 24 -4q80 2 80 88v522q0 11 8 18.5t18 7.5
q11 0 18.5 -7.5t7.5 -18.5v-50q29 34 77 59.5t97 25.5q152 0 152 -157z" />
    <glyph glyph-name="uni02B0" unicode="&#x2b0;" horiz-adv-x="392" 
d="M291 329.5q-6 6.5 -6 14.5v190q0 43 -19.5 60.5t-56.5 17.5q-29 0 -57.5 -15t-44.5 -36v-217q0 -8 -6 -14.5t-15 -6.5t-15 6.5t-6 14.5v398q0 8 6 14.5t15 6.5t15 -6.5t6 -14.5v-149q19 22 51 38.5t66 16.5q52 0 78 -26t26 -82v-196q0 -8 -6 -14.5t-16 -6.5q-9 0 -15 6.5
z" />
    <glyph glyph-name="uni02BC" unicode="&#x2bc;" horiz-adv-x="219" 
d="M85 480q-8 0 -13 5.5t-5 13.5t5 13q20 19 31.5 41t12.5 41q-6 -2 -10 -2q-18 0 -29.5 12t-11.5 30q0 17 12.5 30t30.5 13q21 0 36 -17t15 -47q0 -36 -17 -70t-44 -59q-6 -4 -13 -4z" />
    <glyph glyph-name="circumflex" unicode="&#x2c6;" horiz-adv-x="250" 
d="M125 669l-86 -114q-6 -6 -12 -6q-7 0 -12 5t-5 12q0 3 2 9l80 116q4 7 12 11t16 4h9q8 0 16.5 -4t12.5 -11l79 -116q3 -4 3 -9q0 -7 -5.5 -12t-12.5 -5q-6 0 -12 6z" />
    <glyph glyph-name="caron" unicode="&#x2c7;" horiz-adv-x="250" 
d="M234.5 701q5.5 -5 5.5 -12q0 -5 -3 -8l-79 -116q-4 -7 -12.5 -11.5t-16.5 -4.5h-9q-9 0 -16.5 4.5t-11.5 11.5l-80 116q-2 4 -2 8q0 7 5 12t12 5t12 -6l86 -113l85 113q4 6 12 6q7 0 12.5 -5z" />
    <glyph glyph-name="uni02C9" unicode="&#x2c9;" horiz-adv-x="363" 
d="M36.5 596.5q-5.5 5.5 -5.5 12.5q0 8 5.5 14t13.5 6h263q8 0 13.5 -6t5.5 -14q0 -7 -5.5 -12.5t-13.5 -5.5h-263q-8 0 -13.5 5.5z" />
    <glyph glyph-name="uni02CB" unicode="&#x2cb;" horiz-adv-x="216" 
d="M38 668q-7 5 -7 15q0 8 6 14t14 6q7 0 13 -6l127 -118q5 -5 5 -11t-4.5 -10.5t-10.5 -4.5t-10 4z" />
    <glyph glyph-name="breve" unicode="&#x2d8;" horiz-adv-x="351" 
d="M86 566.5q-43 19.5 -76 55.5q-4 5 -4 13t5.5 13.5t13.5 5.5q9 0 14 -6q26 -30 61 -46.5t76 -16.5q82 0 137 63q3 6 14 6q7 0 13 -5.5t6 -13.5q0 -6 -5 -13q-32 -36 -74 -55.5t-91 -19.5q-47 0 -90 19.5z" />
    <glyph glyph-name="dotaccent" unicode="&#x2d9;" horiz-adv-x="113" 
d="M30 630q11 11 27 11q15 0 26 -11t11 -27t-11 -27t-26 -11q-16 0 -27 11t-11 27t11 27z" />
    <glyph glyph-name="ring" unicode="&#x2da;" horiz-adv-x="230" 
d="M48 711.5q28 28.5 68 28.5q39 0 66.5 -28.5t27.5 -67.5q0 -40 -27.5 -68t-66.5 -28q-40 0 -68 28t-28 68q0 39 28 67.5zM160.5 689q-18.5 19 -44.5 19t-45 -19t-19 -45t19 -45t45 -19t44.5 19t18.5 45t-18.5 45z" />
    <glyph glyph-name="ogonek" unicode="&#x2db;" horiz-adv-x="185" 
d="M44 -166.5q-27 19.5 -27 53.5t30 64.5t78 52.5q16 6 31 6q8 0 9.5 -2t-4.5 -6q-44 -28 -67.5 -52t-23.5 -52q0 -20 12.5 -32t34.5 -12q12 0 20.5 3.5t11.5 3.5q8 0 13.5 -5.5t5.5 -13.5q0 -13 -11 -18q-24 -10 -48 -10q-38 0 -65 19.5z" />
    <glyph glyph-name="tilde" unicode="&#x2dc;" horiz-adv-x="307" 
d="M172 568.5q-15 14.5 -33 43.5q-13 22 -23.5 33.5t-26.5 11.5q-22 0 -36.5 -21t-16.5 -63q-1 -7 -6 -11.5t-12 -4.5t-12.5 6t-4.5 13q4 53 28 85.5t64 32.5q27 0 42.5 -14.5t32.5 -43.5q14 -23 24 -33.5t26 -10.5q22 0 36.5 20.5t16.5 62.5q1 7 6 11.5t12 4.5t12.5 -5.5
t4.5 -13.5q-4 -53 -28 -85.5t-63 -32.5q-28 0 -43 14.5z" />
    <glyph glyph-name="hungarumlaut" unicode="&#x2dd;" horiz-adv-x="291" 
d="M14 554.5q-5 4.5 -5 10.5t4 11l83 121q5 10 17 10q8 0 14.5 -6.5t6.5 -15.5q0 -7 -4 -12l-92 -115q-5 -8 -13 -8q-6 0 -11 4.5zM153 554.5q-5 4.5 -5 10.5t4 11l83 121q5 10 17 10q8 0 14.5 -6.5t6.5 -15.5q0 -7 -4 -12l-92 -115q-5 -8 -13 -8q-6 0 -11 4.5z" />
    <glyph glyph-name="gravecomb" unicode="&#x300;" horiz-adv-x="0" 
d="M-178 668q-7 5 -7 15q0 8 6 14t14 6q7 0 13 -6l127 -118q5 -5 5 -11t-4.5 -10.5t-10.5 -4.5t-10 4z" />
    <glyph glyph-name="acutecomb" unicode="&#x301;" horiz-adv-x="0" 
d="M-182 553q-6 0 -10.5 4.5t-4.5 10.5q0 4 5 11l127 118q6 6 14 6t14 -6t6 -14q0 -10 -7 -15l-133 -111q-4 -4 -11 -4z" />
    <glyph glyph-name="uni0302" unicode="&#x302;" horiz-adv-x="0" 
d="M-125 669l-86 -114q-6 -6 -12 -6q-7 0 -12 5t-5 12q0 3 2 9l80 116q4 7 12 11t16 4h9q8 0 16.5 -4t12.5 -11l79 -116q3 -4 3 -9q0 -7 -5.5 -12t-12.5 -5q-6 0 -12 6z" />
    <glyph glyph-name="tildecomb" unicode="&#x303;" horiz-adv-x="0" 
d="M-135 568.5q-15 14.5 -33 43.5q-13 22 -23.5 33.5t-26.5 11.5q-22 0 -36.5 -21t-16.5 -63q-1 -7 -6 -11.5t-12 -4.5t-12.5 6t-4.5 13q4 53 28 85.5t64 32.5q27 0 42.5 -14.5t32.5 -43.5q14 -23 24 -33.5t26 -10.5q22 0 36.5 20.5t16.5 62.5q1 7 6 11.5t12 4.5t12.5 -5.5
t4.5 -13.5q-4 -53 -28 -85.5t-63 -32.5q-28 0 -43 14.5z" />
    <glyph glyph-name="uni0304" unicode="&#x304;" horiz-adv-x="0" 
d="M-326.5 582.5q-5.5 5.5 -5.5 12.5q0 8 5.5 13.5t13.5 5.5h263q8 0 13.5 -5.5t5.5 -13.5q0 -7 -5.5 -12.5t-13.5 -5.5h-263q-8 0 -13.5 5.5z" />
    <glyph glyph-name="uni0306" unicode="&#x306;" horiz-adv-x="0" 
d="M-265 566.5q-43 19.5 -76 55.5q-4 5 -4 13t5.5 13.5t13.5 5.5q9 0 14 -6q26 -30 61 -46.5t76 -16.5q82 0 137 63q3 6 14 6q7 0 13 -5.5t6 -13.5q0 -6 -5 -13q-32 -36 -74 -55.5t-91 -19.5q-47 0 -90 19.5z" />
    <glyph glyph-name="uni0307" unicode="&#x307;" horiz-adv-x="0" 
d="M-83 630q11 11 27 11q15 0 26 -11t11 -27t-11 -27t-26 -11q-16 0 -27 11t-11 27t11 27z" />
    <glyph glyph-name="uni0308" unicode="&#x308;" horiz-adv-x="0" 
d="M-333 579q-11 11 -11 27q0 15 11 26t26 11t26 -11t11 -26q0 -16 -11 -27t-26 -11t-26 11zM-129 579q-11 11 -11 27q0 15 11 26t26 11t26.5 -11t11.5 -26q0 -16 -11.5 -27t-26.5 -11t-26 11z" />
    <glyph glyph-name="uni0309" unicode="&#x309;" horiz-adv-x="0" 
d="M-50 559q-5 5 -5 12q0 4 3 10q14 22 14 47q0 26 -13.5 40t-37.5 14q-36 0 -51 -35q-5 -10 -16 -10q-7 0 -12.5 5.5t-5.5 12.5q0 6 3 11q11 22 32 36t50 14q38 0 63 -22t25 -66q0 -18 -5 -33t-17 -32q-6 -9 -15 -9q-7 0 -12 5z" />
    <glyph glyph-name="uni030A" unicode="&#x30a;" horiz-adv-x="0" 
d="M-182 711.5q28 28.5 68 28.5q39 0 66.5 -28.5t27.5 -67.5q0 -40 -27.5 -68t-66.5 -28q-40 0 -68 28t-28 68q0 39 28 67.5zM-69.5 689q-18.5 19 -44.5 19t-45 -19t-19 -45t19 -45t45 -19t44.5 19t18.5 45t-18.5 45z" />
    <glyph glyph-name="uni030B" unicode="&#x30b;" horiz-adv-x="0" 
d="M-277 554.5q-5 4.5 -5 10.5t4 11l83 121q5 10 17 10q8 0 14.5 -6.5t6.5 -15.5q0 -7 -4 -12l-92 -115q-5 -8 -13 -8q-6 0 -11 4.5zM-138 554.5q-5 4.5 -5 10.5t4 11l83 121q5 10 17 10q8 0 14.5 -6.5t6.5 -15.5q0 -7 -4 -12l-92 -115q-5 -8 -13 -8q-6 0 -11 4.5z" />
    <glyph glyph-name="uni030C" unicode="&#x30c;" horiz-adv-x="0" 
d="M-15.5 701q5.5 -5 5.5 -12q0 -5 -3 -8l-79 -116q-4 -7 -12.5 -11.5t-16.5 -4.5h-9q-9 0 -16.5 4.5t-11.5 11.5l-80 116q-2 4 -2 8q0 7 5 12t12 5t12 -6l86 -113l85 113q4 6 12 6q7 0 12.5 -5z" />
    <glyph glyph-name="dotbelowcomb" unicode="&#x323;" horiz-adv-x="0" 
d="M-83 -92q11 11 27 11q15 0 26 -11t11 -27t-11 -27t-26 -11q-16 0 -27 11t-11 27t11 27z" />
    <glyph glyph-name="uni0326" unicode="&#x326;" horiz-adv-x="0" 
d="M-147.5 -259q-5.5 5 -5.5 12q0 8 9 15q18 17 29 38t12 40l-10 -1q-16 0 -26 10.5t-10 27.5q0 16 11 27.5t27 11.5q20 0 33.5 -16t13.5 -43q0 -35 -16.5 -67.5t-41.5 -53.5q-6 -6 -13 -6t-12.5 5z" />
    <glyph glyph-name="uni0327" unicode="&#x327;" horiz-adv-x="0" 
d="M-149 -182.5q-23 6.5 -40 16.5q-9 4 -9 15q0 8 5 13t12 5t11 -3q28 -20 68 -20q28 0 46.5 12t18.5 33q0 39 -41 39q-20 0 -34 -12q-6 -4 -12 -4q-8 0 -13.5 5t-5.5 13q0 3 2 9l26 72h38l-26 -68q15 12 37 12q29 0 47.5 -18t18.5 -48q0 -35 -29 -56.5t-72 -21.5
q-25 0 -48 6.5z" />
    <glyph glyph-name="uni0328" unicode="&#x328;" horiz-adv-x="0" 
d="M-141 -166.5q-27 19.5 -27 53.5t30 64.5t78 52.5q16 6 31 6q8 0 9.5 -2t-4.5 -6q-44 -28 -67.5 -52t-23.5 -52q0 -20 12.5 -32t34.5 -12q12 0 20.5 3.5t11.5 3.5q8 0 13.5 -5.5t5.5 -13.5q0 -13 -11 -18q-24 -10 -48 -10q-38 0 -65 19.5z" />
    <glyph glyph-name="uni037E" unicode="&#x37e;" horiz-adv-x="219" 
d="M78 416q-13 13 -13 30q0 18 13 31t31 13t31.5 -13t13.5 -31q0 -17 -13.5 -30t-31.5 -13t-31 13zM85 -119q-8 0 -13 5.5t-5 13.5t5 13q20 19 31.5 40.5t12.5 40.5q-3 -1 -10 -1q-18 0 -29.5 12t-11.5 30q0 17 12.5 30t30.5 13q21 0 36 -17t15 -47q0 -36 -17 -70t-44 -59
q-4 -4 -13 -4z" />
    <glyph glyph-name="tonos" unicode="&#x384;" horiz-adv-x="116" 
d="M22 573.5q-5 5.5 -4 12.5l15 157q1 11 9.5 19t19.5 8q12 0 20.5 -9t8.5 -20l-2 -12l-40 -149q-1 -5 -5.5 -8.5t-9.5 -3.5q-7 0 -12 5.5z" />
    <glyph glyph-name="dieresistonos" unicode="&#x385;" horiz-adv-x="364" 
d="M161 573.5q-5 5.5 -4 12.5l14 157q1 12 9.5 19.5t19.5 7.5q12 0 20.5 -8.5t8.5 -20.5l-2 -12l-39 -149q-2 -5 -6 -8.5t-9 -3.5q-7 0 -12 5.5zM28 579q-11 11 -11 27q0 15 11 26t26 11t26 -11t11 -26q0 -16 -11 -27t-26 -11t-26 11zM283.5 579q-10.5 11 -10.5 27
q0 15 10.5 26t26.5 11q15 0 26 -11t11 -26q0 -16 -11 -27t-26 -11q-16 0 -26.5 11z" />
    <glyph glyph-name="Alphatonos" unicode="&#x386;" horiz-adv-x="647" 
d="M619 27q0 -12 -8.5 -21t-21.5 -9q-10 0 -17.5 5.5t-10.5 13.5l-59 148h-357l-59 -148q-3 -8 -11 -13.5t-17 -5.5q-13 0 -21.5 9t-8.5 21q0 5 3 12l246 600q5 14 18 22.5t28 8.5t28 -8.5t19 -22.5l246 -600q3 -9 3 -12zM166 216h315l-158 395zM111 476.5q-5 5.5 -4 12.5
l15 157q1 11 9.5 19t19.5 8q12 0 20.5 -9t8.5 -20l-2 -12l-40 -149q-1 -5 -5.5 -8.5t-9.5 -3.5q-7 0 -12 5.5z" />
    <glyph glyph-name="Epsilontonos" unicode="&#x388;" horiz-adv-x="600" 
d="M128 8.5q-8 8.5 -8 22.5v605q0 31 31 31h369q11 0 18.5 -7.5t7.5 -18.5q0 -10 -7.5 -18t-18.5 -8h-343v-247h336q11 0 18.5 -7.5t7.5 -18.5q0 -10 -7.5 -18t-18.5 -8h-336v-264h343q11 0 18.5 -7.5t7.5 -18.5q0 -10 -7.5 -18t-18.5 -8h-369q-15 0 -23 8.5zM-8 476.5
q-5 5.5 -4 12.5l15 157q1 11 9.5 19t19.5 8q12 0 20.5 -9t8.5 -20l-2 -12l-40 -149q-1 -5 -5.5 -8.5t-9.5 -3.5q-7 0 -12 5.5z" />
    <glyph glyph-name="Etatonos" unicode="&#x389;" horiz-adv-x="740" 
d="M608.5 6q-8.5 9 -8.5 20v291h-423v-291q0 -12 -8 -20.5t-20 -8.5t-20.5 9t-8.5 20v615q0 12 8.5 20.5t20.5 8.5t20 -8.5t8 -20.5v-272h423v272q0 12 8.5 20.5t20.5 8.5t20.5 -8.5t8.5 -20.5v-615q0 -11 -8.5 -20t-20.5 -9t-20.5 9zM-8 476.5q-5 5.5 -4 12.5l15 157
q1 11 9.5 19t19.5 8q12 0 20.5 -9t8.5 -20l-2 -12l-40 -149q-1 -5 -5.5 -8.5t-9.5 -3.5q-7 0 -12 5.5z" />
    <glyph glyph-name="Iotatonos" unicode="&#x38a;" horiz-adv-x="260" 
d="M128.5 6q-8.5 9 -8.5 20v615q0 12 8.5 20.5t20.5 8.5t20 -8.5t8 -20.5v-615q0 -12 -8 -20.5t-20 -8.5t-20.5 9zM-8 476.5q-5 5.5 -4 12.5l15 157q1 11 9.5 19t19.5 8q12 0 20.5 -9t8.5 -20l-2 -12l-40 -149q-1 -5 -5.5 -8.5t-9.5 -3.5q-7 0 -12 5.5z" />
    <glyph glyph-name="Omicrontonos" unicode="&#x38c;" horiz-adv-x="775" 
d="M109.5 509q40.5 79 114 124t169.5 45q95 0 169 -45t114.5 -124t40.5 -176t-40.5 -176t-114.5 -124t-169 -45q-96 0 -169.5 45t-114 124t-40.5 176t40.5 176zM624.5 484.5q-32.5 66.5 -92.5 104t-139 37.5q-80 0 -139.5 -37.5t-92 -104t-32.5 -151.5q0 -84 32.5 -150.5
t92.5 -104.5t139 -38q78 0 138 38t93 104.5t33 150.5q0 85 -32.5 151.5zM-1 476.5q-5 5.5 -4 12.5l15 157q1 11 9.5 19t19.5 8q12 0 20.5 -9t8.5 -20l-2 -12l-40 -149q-1 -5 -5.5 -8.5t-9.5 -3.5q-7 0 -12 5.5z" />
    <glyph glyph-name="Upsilontonos" unicode="&#x38e;" horiz-adv-x="678" 
d="M635 626l-237 -340v-260q0 -11 -8.5 -20t-20.5 -9t-20.5 9t-8.5 20v259l-237 340q-5 7 -5 17q0 11 8.5 19.5t20.5 8.5q17 0 24 -12l218 -321l218 321q8 12 24 12q12 0 20.5 -8.5t8.5 -19.5t-5 -16zM-1 476.5q-5 5.5 -4 12.5l15 157q1 11 9.5 19t19.5 8q12 0 20.5 -9
t8.5 -20l-2 -12l-40 -149q-1 -5 -5.5 -8.5t-9.5 -3.5q-7 0 -12 5.5z" />
    <glyph glyph-name="Omegatonos" unicode="&#x38f;" horiz-adv-x="778" 
d="M114.5 168.5q-42.5 72.5 -42.5 172.5q0 96 40.5 172.5t114 120.5t169.5 44t169.5 -44t114 -120.5t40.5 -172.5q0 -100 -42 -172.5t-117 -116.5h119q11 0 18.5 -7.5t7.5 -18.5q0 -10 -7.5 -18t-18.5 -8h-178q-13 0 -21.5 9t-8.5 21q0 10 5.5 17.5t13.5 10.5
q44 15 82.5 51.5t62.5 93.5t24 130q0 83 -31.5 149.5t-91.5 104.5t-141 38t-141 -38t-91.5 -104.5t-31.5 -149.5q0 -73 24 -130t62.5 -93.5t83.5 -51.5q8 -3 13.5 -10.5t5.5 -17.5q0 -12 -8.5 -21t-21.5 -9h-178q-10 0 -18 8t-8 18q0 11 8 18.5t18 7.5h119
q-75 44 -117.5 116.5zM-1 476.5q-5 5.5 -4 12.5l15 157q1 11 9.5 19t19.5 8q12 0 20.5 -9t8.5 -20l-2 -12l-40 -149q-1 -5 -5.5 -8.5t-9.5 -3.5q-7 0 -12 5.5z" />
    <glyph glyph-name="iotadieresistonos" unicode="&#x390;" horiz-adv-x="228" 
d="M104.5 15q-23.5 27 -23.5 78v367q0 11 8 18.5t18 7.5q11 0 18.5 -7.5t7.5 -18.5v-361q0 -29 11.5 -46t34.5 -18h8q10 -1 15 -8t5 -15q0 -10 -6 -16.5t-15 -7.5h-11q-47 0 -70.5 27zM97 593.5q-5 5.5 -4 12.5l14 157q1 12 9.5 19.5t19.5 7.5q12 0 20.5 -8.5t8.5 -20.5
l-2 -12l-39 -149q-2 -5 -6 -8.5t-9 -3.5q-7 0 -12 5.5zM-36 599q-11 11 -11 27q0 15 11 26t26 11t26 -11t11 -26q0 -16 -11 -27t-26 -11t-26 11zM219.5 599q-10.5 11 -10.5 27q0 15 10.5 26t26.5 11q15 0 26 -11t11 -26q0 -16 -11 -27t-26 -11q-16 0 -26.5 11z" />
    <glyph glyph-name="Alpha" unicode="&#x391;" horiz-adv-x="647" 
d="M619 27q0 -12 -8.5 -21t-21.5 -9q-10 0 -17.5 5.5t-10.5 13.5l-59 148h-357l-59 -148q-3 -8 -11 -13.5t-17 -5.5q-13 0 -21.5 9t-8.5 21q0 5 3 12l246 600q5 14 18 22.5t28 8.5t28 -8.5t19 -22.5l246 -600q3 -9 3 -12zM166 216h315l-158 395z" />
    <glyph glyph-name="Beta" unicode="&#x392;" horiz-adv-x="614" 
d="M91 8.5q-8 8.5 -8 22.5v605q0 31 31 31h243q84 0 134 -46t50 -124q0 -60 -34.5 -101.5t-82.5 -51.5q35 -5 65 -29.5t47.5 -60t17.5 -74.5q0 -83 -51 -131.5t-140 -48.5h-249q-15 0 -23 8.5zM350 368q62 0 96.5 34.5t34.5 88.5q0 53 -34.5 88.5t-96.5 35.5h-210v-247h210z
M354 52q66 0 103 35.5t37 96.5q0 55 -37 93.5t-103 38.5h-214v-264h214z" />
    <glyph glyph-name="Gamma" unicode="&#x393;" horiz-adv-x="539" 
d="M91.5 6q-8.5 9 -8.5 20v610q0 31 31 31h369q11 0 18.5 -7.5t7.5 -18.5q0 -10 -7.5 -18t-18.5 -8h-343v-589q0 -12 -8 -20.5t-20 -8.5t-20.5 9z" />
    <glyph glyph-name="uni0394" unicode="&#x394;" horiz-adv-x="647" 
d="M34 5.5q-7 5.5 -7 15.5q0 8 3 15l247 603q5 14 18 22.5t28 8.5q16 0 29 -8.5t18 -22.5l247 -603q3 -7 3 -15q0 -10 -7 -15.5t-20 -5.5h-539q-13 0 -20 5.5zM323 606l-225 -554h451z" />
    <glyph glyph-name="Epsilon" unicode="&#x395;" horiz-adv-x="564" 
d="M91 8.5q-8 8.5 -8 22.5v605q0 31 31 31h369q11 0 18.5 -7.5t7.5 -18.5q0 -10 -7.5 -18t-18.5 -8h-343v-247h336q11 0 18.5 -7.5t7.5 -18.5q0 -10 -7.5 -18t-18.5 -8h-336v-264h343q11 0 18.5 -7.5t7.5 -18.5q0 -10 -7.5 -18t-18.5 -8h-369q-15 0 -23 8.5z" />
    <glyph glyph-name="Zeta" unicode="&#x396;" horiz-adv-x="581" 
d="M57.5 10q-10.5 10 -10.5 25q0 10 7 19l398 561h-379q-10 0 -18 8t-8 18q0 11 8 18.5t18 7.5h419q14 0 24.5 -10t10.5 -24q0 -11 -7 -20l-398 -561h386q11 0 18.5 -7.5t7.5 -18.5q0 -10 -7.5 -18t-18.5 -8h-426q-14 0 -24.5 10z" />
    <glyph glyph-name="Eta" unicode="&#x397;" horiz-adv-x="703" 
d="M571.5 6q-8.5 9 -8.5 20v291h-423v-291q0 -12 -8 -20.5t-20 -8.5t-20.5 9t-8.5 20v615q0 12 8.5 20.5t20.5 8.5t20 -8.5t8 -20.5v-272h423v272q0 12 8.5 20.5t20.5 8.5t20.5 -8.5t8.5 -20.5v-615q0 -11 -8.5 -20t-20.5 -9t-20.5 9z" />
    <glyph glyph-name="Theta" unicode="&#x398;" horiz-adv-x="764" 
d="M98.5 509q40.5 79 114 124t169.5 45q95 0 169 -45t114.5 -124t40.5 -176t-40.5 -176t-114.5 -124t-169 -45q-96 0 -169.5 45t-114 124t-40.5 176t40.5 176zM613.5 484.5q-32.5 66.5 -92.5 104t-139 37.5q-80 0 -139.5 -37.5t-92 -104t-32.5 -151.5q0 -84 32.5 -150.5
t92.5 -104.5t139 -38q78 0 138 38t93 104.5t33 150.5q0 85 -32.5 151.5zM186 324q-8 8 -8 18q0 11 8 18.5t18 7.5h356q11 0 18.5 -7.5t7.5 -18.5q0 -10 -7.5 -18t-18.5 -8h-356q-10 0 -18 8z" />
    <glyph glyph-name="Iota" unicode="&#x399;" horiz-adv-x="223" 
d="M91.5 6q-8.5 9 -8.5 20v615q0 12 8.5 20.5t20.5 8.5t20 -8.5t8 -20.5v-615q0 -12 -8 -20.5t-20 -8.5t-20.5 9z" />
    <glyph glyph-name="Kappa" unicode="&#x39a;" horiz-adv-x="586" 
d="M541 25q0 -11 -8 -19.5t-19 -8.5q-13 0 -21 8l-279 307l-74 -80v-206q0 -12 -8 -20.5t-20 -8.5t-20.5 9t-8.5 20v615q0 12 8.5 20.5t20.5 8.5t20 -8.5t8 -20.5v-340l326 360q7 9 20 9q11 0 19.5 -8t8.5 -19t-8 -19l-255 -276l282 -304q8 -10 8 -19z" />
    <glyph glyph-name="Lambda" unicode="&#x39b;" horiz-adv-x="647" 
d="M570 2.5q-8 5.5 -11 14.5l-236 589l-235 -589q-4 -9 -11.5 -14.5t-17.5 -5.5q-13 0 -22 9t-9 21q0 6 3 12l246 600q5 14 18 22.5t28 8.5t28 -8.5t19 -22.5l246 -600q2 -4 2 -11q0 -12 -9 -21.5t-21 -9.5q-10 0 -18 5.5z" />
    <glyph glyph-name="Mu" unicode="&#x39c;" horiz-adv-x="790" 
d="M657.5 6q-8.5 9 -8.5 20v566l-237 -581q-6 -14 -17 -14q-12 0 -17 14l-238 581v-566q0 -12 -8 -20.5t-20 -8.5t-20.5 9t-8.5 20v594q0 20 14.5 35t35.5 15q16 0 29 -8.5t18 -22.5l215 -529l215 529q5 14 18 22.5t29 8.5q21 0 35.5 -15t14.5 -35v-594q0 -11 -8.5 -20
t-20.5 -9t-20.5 9z" />
    <glyph glyph-name="Nu" unicode="&#x39d;" horiz-adv-x="699" 
d="M551 12l-411 564v-550q0 -12 -8 -20.5t-20 -8.5t-20.5 9t-8.5 20v606q0 16 10.5 27t26.5 11q20 0 31 -16l408 -555v542q0 12 8 20.5t20 8.5t20.5 -8.5t8.5 -20.5v-608q0 -14 -10.5 -25t-24.5 -11q-20 0 -30 15z" />
    <glyph glyph-name="Xi" unicode="&#x39e;" horiz-adv-x="612" 
d="M64 623q-8 8 -8 18q0 11 8 18.5t18 7.5h448q11 0 18.5 -7.5t7.5 -18.5q0 -10 -7.5 -18t-18.5 -8h-448q-10 0 -18 8zM71 324q-8 8 -8 18q0 11 8 18.5t18 7.5h435q11 0 18.5 -7.5t7.5 -18.5q0 -10 -7.5 -18t-18.5 -8h-435q-10 0 -18 8zM63 8q-8 8 -8 18q0 11 8 18.5t18 7.5
h449q11 0 18.5 -7.5t7.5 -18.5q0 -10 -7.5 -18t-18.5 -8h-449q-10 0 -18 8z" />
    <glyph glyph-name="Omicron" unicode="&#x39f;" horiz-adv-x="764" 
d="M98.5 509q40.5 79 114 124t169.5 45q95 0 169 -45t114.5 -124t40.5 -176t-40.5 -176t-114.5 -124t-169 -45q-96 0 -169.5 45t-114 124t-40.5 176t40.5 176zM613.5 484.5q-32.5 66.5 -92.5 104t-139 37.5q-80 0 -139.5 -37.5t-92 -104t-32.5 -151.5q0 -84 32.5 -150.5
t92.5 -104.5t139 -38q78 0 138 38t93 104.5t33 150.5q0 85 -32.5 151.5z" />
    <glyph glyph-name="Pi" unicode="&#x3a0;" horiz-adv-x="703" 
d="M571.5 6q-8.5 9 -8.5 20v589h-423v-589q0 -12 -8 -20.5t-20 -8.5t-20.5 9t-8.5 20v610q0 31 31 31h475q15 0 23.5 -8t8.5 -23v-610q0 -11 -8.5 -20t-20.5 -9t-20.5 9z" />
    <glyph glyph-name="Rho" unicode="&#x3a1;" 
d="M91.5 6q-8.5 9 -8.5 20v610q0 31 31 31h219q62 0 107.5 -26.5t69.5 -71t24 -97.5t-24 -97.5t-70 -71t-107 -26.5h-193v-251q0 -12 -8 -20.5t-20 -8.5t-20.5 9zM433.5 575q-40.5 40 -106.5 40h-187v-286h187q66 0 106.5 40t40.5 103t-40.5 103z" />
    <glyph glyph-name="Sigma" unicode="&#x3a3;" 
d="M490 52q11 0 18.5 -7.5t7.5 -18.5q0 -10 -7.5 -18t-18.5 -8h-399q-14 0 -25 10.5t-11 25.5q0 14 9 23l237 284l-236 265q-9 9 -9 24q0 14 10.5 24.5t24.5 10.5h399q11 0 18.5 -7.5t7.5 -18.5q0 -10 -7.5 -18t-18.5 -8h-361l222 -250q10 -11 10 -22q0 -10 -9 -21
l-226 -270h364z" />
    <glyph glyph-name="Tau" unicode="&#x3a4;" horiz-adv-x="564" 
d="M261.5 6q-8.5 9 -8.5 20v589h-195q-10 0 -18 8t-8 18q0 11 8 18.5t18 7.5h449q11 0 18.5 -7.5t7.5 -18.5q0 -10 -7.5 -18t-18.5 -8h-196v-589q0 -11 -8.5 -20t-20.5 -9t-20.5 9z" />
    <glyph glyph-name="Upsilon" unicode="&#x3a5;" horiz-adv-x="618" 
d="M575 626l-237 -340v-260q0 -11 -8.5 -20t-20.5 -9t-20.5 9t-8.5 20v259l-237 340q-5 7 -5 17q0 11 8.5 19.5t20.5 8.5q17 0 24 -12l218 -321l218 321q8 12 24 12q12 0 20.5 -8.5t8.5 -19.5t-5 -16z" />
    <glyph glyph-name="Phi" unicode="&#x3a6;" horiz-adv-x="785" 
d="M689.5 199.5q-37.5 -59.5 -106.5 -95t-162 -40.5v-38q0 -11 -8.5 -20t-19.5 -9q-12 0 -20.5 8.5t-8.5 20.5v38q-93 5 -162 40.5t-106.5 95t-37.5 133.5t37.5 133.5t106.5 95t162 40.5v39q0 12 8 20.5t21 8.5q11 0 19.5 -8.5t8.5 -20.5v-39q92 -5 161.5 -41t107 -95
t37.5 -133t-37.5 -133.5zM147.5 225.5q29.5 -47.5 85.5 -75.5t131 -32v431q-114 -7 -180 -65.5t-66 -150.5q0 -60 29.5 -107.5zM551 150q55 28 85 75.5t30 107.5q0 92 -66 150.5t-179 65.5v-431q75 4 130 32z" />
    <glyph glyph-name="Chi" unicode="&#x3a7;" horiz-adv-x="645" 
d="M609 26q0 -12 -8 -20.5t-20 -8.5q-14 0 -23 9l-235 294l-236 -294q-9 -9 -23 -9q-12 0 -20 8.5t-8 20.5q0 9 7 18l246 298l-232 281q-6 10 -6 18q0 12 8.5 20.5t20.5 8.5q14 0 22 -11l221 -274l220 274q8 11 22 11q12 0 20.5 -8.5t8.5 -20.5q0 -6 -7 -18l-231 -280
l246 -299q7 -9 7 -18z" />
    <glyph glyph-name="Psi" unicode="&#x3a8;" horiz-adv-x="766" 
d="M633.5 661q8.5 9 20.5 9t20.5 -9t8.5 -20v-249q0 -120 -69.5 -190t-201.5 -77v-99q0 -11 -8.5 -20t-20.5 -9t-20.5 9t-8.5 20v99q-132 7 -201.5 77.5t-69.5 189.5v249q0 12 8.5 20.5t20.5 8.5t20.5 -8.5t8.5 -20.5v-248q0 -97 54.5 -153t158.5 -63v464q0 12 8.5 20.5
t20.5 8.5t20.5 -8.5t8.5 -20.5v-464q103 7 158 63t55 153v248q0 11 8.5 20z" />
    <glyph glyph-name="uni03A9" unicode="&#x3a9;" horiz-adv-x="764" 
d="M100.5 168.5q-42.5 72.5 -42.5 172.5q0 96 40.5 172.5t114 120.5t169.5 44t169.5 -44t114 -120.5t40.5 -172.5q0 -100 -42 -172.5t-117 -116.5h119q11 0 18.5 -7.5t7.5 -18.5q0 -10 -7.5 -18t-18.5 -8h-178q-13 0 -21.5 9t-8.5 21q0 10 5.5 17.5t13.5 10.5
q44 15 82.5 51.5t62.5 93.5t24 130q0 83 -31.5 149.5t-91.5 104.5t-141 38t-141 -38t-91.5 -104.5t-31.5 -149.5q0 -73 24 -130t62.5 -93.5t83.5 -51.5q8 -3 13.5 -10.5t5.5 -17.5q0 -12 -8.5 -21t-21.5 -9h-178q-10 0 -18 8t-8 18q0 11 8 18.5t18 7.5h119
q-75 44 -117.5 116.5z" />
    <glyph glyph-name="Iotadieresis" unicode="&#x3aa;" horiz-adv-x="223" 
d="M91.5 6q-8.5 9 -8.5 20v615q0 12 8.5 20.5t20.5 8.5t20 -8.5t8 -20.5v-615q0 -12 -8 -20.5t-20 -8.5t-20.5 9zM-16 746q-11 11 -11 27q0 15 11 26t26 11t26 -11t11 -26q0 -16 -11 -27t-26 -11t-26 11zM188 746q-11 11 -11 27q0 15 11 26t26 11t26.5 -11t11.5 -26
q0 -16 -11.5 -27t-26.5 -11t-26 11z" />
    <glyph glyph-name="Upsilondieresis" unicode="&#x3ab;" horiz-adv-x="618" 
d="M575 626l-237 -340v-260q0 -11 -8.5 -20t-20.5 -9t-20.5 9t-8.5 20v259l-237 340q-5 7 -5 17q0 11 8.5 19.5t20.5 8.5q17 0 24 -12l218 -321l218 321q8 12 24 12q12 0 20.5 -8.5t8.5 -19.5t-5 -16zM181 746q-11 11 -11 27q0 15 11 26t26 11t26 -11t11 -26q0 -16 -11 -27
t-26 -11t-26 11zM385 746q-11 11 -11 27q0 15 11 26t26 11t26.5 -11t11.5 -26q0 -16 -11.5 -27t-26.5 -11t-26 11z" />
    <glyph glyph-name="alphatonos" unicode="&#x3ac;" horiz-adv-x="585" 
d="M558.5 27q5.5 -7 5.5 -15q0 -10 -6 -16.5t-16 -7.5h-10q-43 0 -66.5 24t-26.5 68q-26 -41 -71.5 -66.5t-98.5 -25.5q-64 0 -113 31t-76 88.5t-27 133.5t27 133.5t76.5 89t112.5 31.5q51 0 94.5 -23.5t73.5 -66.5v55q0 11 8 18.5t19 7.5t18.5 -7.5t7.5 -18.5v-361
q0 -29 11.5 -46t33.5 -18h8q10 -1 15.5 -8zM437 360q-22 36 -66 62t-93 26q-78 0 -123.5 -58.5t-45.5 -148.5t45.5 -148t123.5 -58q49 0 93 25t66 61v239zM277 593.5q-5 5.5 -4 12.5l15 157q1 11 9.5 19t19.5 8q12 0 20.5 -9t8.5 -20l-2 -12l-40 -149q-1 -5 -5.5 -8.5
t-9.5 -3.5q-7 0 -12 5.5z" />
    <glyph glyph-name="epsilontonos" unicode="&#x3ad;" horiz-adv-x="486" 
d="M106 27q-53 39 -53 101q0 55 39 84.5t85 33.5q-43 6 -78.5 37t-35.5 83q0 60 53.5 94.5t135.5 34.5q56 0 97.5 -17t75.5 -49q7 -7 7 -17q0 -9 -6.5 -15.5t-16.5 -6.5q-7 0 -14 5q-29 29 -63 42t-81 13q-57 0 -95 -24.5t-38 -63.5q0 -46 39.5 -70.5t101.5 -24.5h63
q10 0 17 -6t7 -16q0 -9 -7 -15.5t-16 -6.5h-64q-150 0 -150 -92q0 -45 38.5 -72t104.5 -27q47 0 83 14t68 43q6 6 14 6q11 0 18 -7t7 -18t-9 -18q-35 -32 -79 -48t-102 -16q-93 0 -146 39zM243 593.5q-5 5.5 -4 12.5l15 157q1 11 9.5 19t19.5 8q12 0 20.5 -9t8.5 -20l-2 -12
l-40 -149q-1 -5 -5.5 -8.5t-9.5 -3.5q-7 0 -12 5.5z" />
    <glyph glyph-name="etatonos" unicode="&#x3ae;" horiz-adv-x="540" 
d="M459 338v-499q0 -11 -7.5 -18.5t-18.5 -7.5q-10 0 -18 7.5t-8 18.5v488q0 66 -30 93.5t-87 27.5q-45 0 -89 -24t-68 -59v-342q0 -10 -7.5 -18t-18.5 -8q-10 0 -18 8t-8 18v437q0 11 8 18.5t18 7.5q11 0 18.5 -7.5t7.5 -18.5v-50q29 34 77 59.5t97 25.5q152 0 152 -157z
M260 593.5q-5 5.5 -4 12.5l15 157q1 11 9.5 19t19.5 8q12 0 20.5 -9t8.5 -20l-2 -12l-40 -149q-1 -5 -5.5 -8.5t-9.5 -3.5q-7 0 -12 5.5z" />
    <glyph glyph-name="iotatonos" unicode="&#x3af;" horiz-adv-x="228" 
d="M104.5 15q-23.5 27 -23.5 78v367q0 11 8 18.5t18 7.5q11 0 18.5 -7.5t7.5 -18.5v-361q0 -29 11.5 -46t34.5 -18h8q10 -1 15 -8t5 -15q0 -10 -6 -16.5t-15 -7.5h-11q-47 0 -70.5 27zM97 593.5q-5 5.5 -4 12.5l15 157q1 11 9.5 19t19.5 8q12 0 20.5 -9t8.5 -20l-2 -12
l-40 -149q-1 -5 -5.5 -8.5t-9.5 -3.5q-7 0 -12 5.5z" />
    <glyph glyph-name="upsilondieresistonos" unicode="&#x3b0;" horiz-adv-x="555" 
d="M129.5 47q-48.5 59 -48.5 162v251q0 11 8 18.5t18 7.5q11 0 18.5 -7.5t7.5 -18.5v-250q0 -82 36 -128.5t101 -46.5q55 0 95 29t60.5 77t20.5 105q0 120 -64 203q-4 7 -4 15q0 11 8 18.5t18 7.5q13 0 22 -12q37 -50 56.5 -109t19.5 -123q0 -73 -28.5 -131.5t-81.5 -92.5
t-122 -34q-92 0 -140.5 59zM261 593.5q-5 5.5 -4 12.5l14 157q1 12 9.5 19.5t19.5 7.5q12 0 20.5 -8.5t8.5 -20.5l-2 -12l-39 -149q-2 -5 -6 -8.5t-9 -3.5q-7 0 -12 5.5zM128 599q-11 11 -11 27q0 15 11 26t26 11t26 -11t11 -26q0 -16 -11 -27t-26 -11t-26 11zM383.5 599
q-10.5 11 -10.5 27q0 15 10.5 26t26.5 11q15 0 26 -11t11 -26q0 -16 -11 -27t-26 -11q-16 0 -26.5 11z" />
    <glyph glyph-name="alpha" unicode="&#x3b1;" horiz-adv-x="585" 
d="M558.5 27q5.5 -7 5.5 -15q0 -10 -6 -16.5t-16 -7.5h-10q-43 0 -66.5 24t-26.5 68q-26 -41 -71.5 -66.5t-98.5 -25.5q-64 0 -113 31t-76 88.5t-27 133.5t27 133.5t76.5 89t112.5 31.5q51 0 94.5 -23.5t73.5 -66.5v55q0 11 8 18.5t19 7.5t18.5 -7.5t7.5 -18.5v-361
q0 -29 11.5 -46t33.5 -18h8q10 -1 15.5 -8zM437 360q-22 36 -66 62t-93 26q-78 0 -123.5 -58.5t-45.5 -148.5t45.5 -148t123.5 -58q49 0 93 25t66 61v239z" />
    <glyph glyph-name="beta" unicode="&#x3b2;" 
d="M125.5 -179.5q-7.5 -7.5 -18.5 -7.5q-10 0 -18 7.5t-8 18.5v619q0 72 30.5 121.5t80.5 73.5t109 24q55 0 101 -21t73 -60.5t27 -94.5q0 -69 -42.5 -108t-95.5 -48q33 -3 68.5 -23t60 -57t24.5 -90q0 -56 -27 -98t-74.5 -65.5t-108.5 -23.5q-56 0 -101.5 24.5t-72.5 64.5
v-238q0 -11 -7.5 -18.5zM200.5 60q44.5 -25 94.5 -25q79 0 122.5 39t43.5 107q0 69 -49.5 104t-124.5 33q-14 1 -24 11t-11 23q5 14 34 16q69 -2 114.5 31.5t45.5 97.5q0 60 -42 96.5t-103 36.5q-72 0 -120 -44.5t-48 -127.5v-337q23 -36 67.5 -61z" />
    <glyph glyph-name="gamma" unicode="&#x3b3;" horiz-adv-x="481" 
d="M222 -179q-8 8 -8 18v124q0 133 -50.5 261.5t-131.5 222.5q-6 10 -6 15q0 10 7 17t17 7q12 0 18 -8q69 -72 122.5 -188.5t63.5 -219.5q59 80 98.5 184.5t43.5 206.5q1 10 8.5 17.5t17.5 7.5q11 0 19 -8.5t7 -19.5q-5 -112 -53.5 -231.5t-127.5 -222.5v-165
q0 -11 -7.5 -18.5t-18.5 -7.5t-19 8z" />
    <glyph glyph-name="delta" unicode="&#x3b4;" 
d="M405 414q46 -23 79.5 -70.5t33.5 -125.5q0 -59 -28.5 -112t-81.5 -85.5t-121 -32.5q-69 0 -122.5 32.5t-82.5 85.5t-29 113q0 77 42 133t112 83q-45 18 -69.5 43t-24.5 67q0 58 46 96t126 38q97 0 158 -58q9 -9 9 -18t-7 -16t-16 -7t-15 6q-23 23 -56 36t-73 13
q-56 0 -88.5 -25t-32.5 -63q0 -34 30.5 -52t94.5 -37q70 -21 116 -44zM382 62.5q41 27.5 62.5 69.5t21.5 86q0 61 -26.5 98t-65.5 57t-102 40q-79 -22 -121 -72.5t-42 -121.5q0 -44 21.5 -86.5t61.5 -70t94 -27.5q55 0 96 27.5z" />
    <glyph glyph-name="epsilon" unicode="&#x3b5;" horiz-adv-x="486" 
d="M106 27q-53 39 -53 101q0 55 39 84.5t85 33.5q-43 6 -78.5 37t-35.5 83q0 60 53.5 94.5t135.5 34.5q56 0 97.5 -17t75.5 -49q7 -7 7 -17q0 -9 -6.5 -15.5t-16.5 -6.5q-7 0 -14 5q-29 29 -63 42t-81 13q-57 0 -95 -24.5t-38 -63.5q0 -46 39.5 -70.5t101.5 -24.5h63
q10 0 17 -6t7 -16q0 -9 -7 -15.5t-16 -6.5h-64q-150 0 -150 -92q0 -45 38.5 -72t104.5 -27q47 0 83 14t68 43q6 6 14 6q11 0 18 -7t7 -18t-9 -18q-35 -32 -79 -48t-102 -16q-93 0 -146 39z" />
    <glyph glyph-name="zeta" unicode="&#x3b6;" horiz-adv-x="491" 
d="M126.5 55q-73.5 55 -73.5 157q0 229 321 409h-284q-10 0 -17 6.5t-7 16.5t7 16.5t17 6.5h331q11 0 18.5 -8t7.5 -19q0 -15 -13 -23q-161 -95 -243 -192t-82 -211q0 -83 59 -125t161 -42q117 0 117 -93q0 -39 -32 -100q-7 -14 -22 -14q-11 0 -18.5 7.5t-7.5 18.5q0 5 3 11
q22 44 22 70q0 25 -16.5 39t-50.5 14q-124 0 -197.5 55z" />
    <glyph glyph-name="eta" unicode="&#x3b7;" horiz-adv-x="540" 
d="M459 338v-499q0 -11 -7.5 -18.5t-18.5 -7.5q-10 0 -18 7.5t-8 18.5v488q0 66 -30 93.5t-87 27.5q-45 0 -89 -24t-68 -59v-342q0 -10 -7.5 -18t-18.5 -8q-10 0 -18 8t-8 18v437q0 11 8 18.5t18 7.5q11 0 18.5 -7.5t7.5 -18.5v-50q29 34 77 59.5t97 25.5q152 0 152 -157z
" />
    <glyph glyph-name="theta" unicode="&#x3b8;" 
d="M459 583q59 -96 59 -249t-59 -249.5t-174 -96.5q-76 0 -128.5 45.5t-78 123.5t-25.5 177q0 153 59 249t173 96q115 0 174 -96zM155.5 556q-42.5 -76 -45.5 -197h351q-3 122 -45.5 197.5t-130.5 75.5q-87 0 -129.5 -76zM415.5 111.5q42.5 76.5 45.5 200.5h-351
q3 -124 45.5 -200.5t129.5 -76.5q88 0 130.5 76.5z" />
    <glyph glyph-name="iota" unicode="&#x3b9;" horiz-adv-x="228" 
d="M104.5 15q-23.5 27 -23.5 78v367q0 11 8 18.5t18 7.5q11 0 18.5 -7.5t7.5 -18.5v-361q0 -29 11.5 -46t34.5 -18h8q10 -1 15 -8t5 -15q0 -10 -6 -16.5t-15 -7.5h-11q-47 0 -70.5 27z" />
    <glyph glyph-name="kappa" unicode="&#x3ba;" horiz-adv-x="505" 
d="M464 24q0 -11 -7.5 -19t-18.5 -8q-13 0 -21 9l-194 224l-90 -85v-122q0 -10 -7.5 -18t-18.5 -8q-10 0 -18 8t-8 18v437q0 11 8 18.5t18 7.5q11 0 18.5 -7.5t7.5 -18.5v-252l287 272q8 6 17 6q10 0 17 -7.5t7 -17.5t-8 -18l-190 -179l195 -222q6 -7 6 -18z" />
    <glyph glyph-name="lambda" unicode="&#x3bb;" horiz-adv-x="481" 
d="M419 2q-7 5 -9 12l-169 408l-170 -408q-3 -8 -10 -12.5t-15 -4.5q-11 0 -18.5 8t-7.5 19q0 7 1 10l190 453l-38 86q-14 33 -31 46t-42 13q-16 0 -23 -3q-11 -1 -19 6t-8 18q0 9 6.5 15.5t14.5 7.5q14 3 29 3q86 -2 124 -90l234 -553q3 -7 3 -12q0 -11 -7.5 -19t-19.5 -8
q-8 0 -15 5z" />
    <glyph glyph-name="uni03BC" unicode="&#x3bc;" horiz-adv-x="554" 
d="M528 27q5 -7 5 -15q0 -10 -6 -16.5t-15 -7.5h-11q-81 0 -93 87q-30 -38 -73 -62.5t-88 -24.5q-84 0 -114 56v-205q0 -11 -7.5 -18.5t-18.5 -7.5q-10 0 -18 7.5t-8 18.5v621q0 11 8 18.5t18 7.5q11 0 18.5 -7.5t7.5 -18.5v-305q0 -65 30.5 -93.5t87.5 -28.5q44 0 87.5 24
t68.5 58v345q0 11 8 18.5t18 7.5q11 0 18.5 -7.5t7.5 -18.5v-361q0 -29 11.5 -46t34.5 -18h8q10 -1 15 -8z" />
    <glyph glyph-name="nu" unicode="&#x3bd;" horiz-adv-x="481" 
d="M217 4.5q-11 7.5 -16 19.5l-179 425q-2 3 -2 10q0 11 7.5 19t18.5 8q8 0 15 -5t9 -12l173 -415q67 91 108 197.5t45 209.5q1 10 8.5 17.5t17.5 7.5q11 0 19 -8.5t7 -19.5q-5 -108 -50.5 -224.5t-120.5 -218.5q-5 -8 -15 -13t-21 -5q-13 0 -24 7.5z" />
    <glyph glyph-name="xi" unicode="&#x3be;" horiz-adv-x="491" 
d="M76 261q23 36 56.5 55t65.5 23q-50 9 -92 43.5t-42 94.5q0 45 32.5 85.5t80.5 58.5h-86q-9 0 -16.5 7t-7.5 16q0 10 7.5 16.5t16.5 6.5h322q10 0 17 -7t7 -17q0 -9 -7 -15.5t-17 -6.5h-166q-54 -13 -90.5 -52t-36.5 -83q0 -57 48 -88t119 -31h120q9 0 16.5 -7t7.5 -16
t-7.5 -16t-16.5 -7h-120q-78 0 -128 -34.5t-50 -104.5q0 -68 56.5 -102t163.5 -34q117 0 117 -92q0 -38 -32 -100q-7 -14 -22 -14q-11 0 -19 7.5t-8 18.5q0 6 3 11q12 25 17.5 41.5t5.5 31.5q0 49 -67 49q-131 0 -201 44.5t-70 131.5q0 50 23 86z" />
    <glyph glyph-name="omicron" unicode="&#x3bf;" 
d="M163.5 21.5q-52.5 33.5 -81.5 91.5t-29 129t29 128.5t81.5 91t121.5 33.5q70 0 123 -33.5t81.5 -91t28.5 -128.5t-28.5 -129t-81.5 -91.5t-123 -33.5q-69 0 -121.5 33.5zM380 63.5q40 28.5 61 76t21 102.5t-21 102t-61 75.5t-95 28.5q-54 0 -94 -28.5t-61 -75.5t-21 -102
t21 -102.5t61 -76t94 -28.5q55 0 95 28.5z" />
    <glyph glyph-name="pi" unicode="&#x3c0;" horiz-adv-x="561" 
d="M546 476.5q7 -6.5 7 -16.5t-7 -16.5t-16 -6.5h-60v-414q0 -10 -7.5 -18t-18.5 -8t-19 8t-8 18v414h-273v-414q0 -10 -7.5 -18t-18.5 -8t-19 7.5t-8 18.5v414h-59q-10 0 -17 6.5t-7 16.5t7 16.5t17 6.5h498q9 0 16 -6.5z" />
    <glyph glyph-name="rho" unicode="&#x3c1;" horiz-adv-x="567" 
d="M133 -161q0 -11 -7.5 -18.5t-18.5 -7.5q-10 0 -18 7.5t-8 18.5v403q0 71 27 128.5t76 91t114 33.5t115 -33.5t77 -91t27 -128.5q0 -76 -27 -133.5t-76 -89t-113 -31.5q-50 0 -94 24t-74 66v-239zM441.5 344q-19.5 47 -56.5 75.5t-88 28.5t-88 -28.5t-56.5 -75.5
t-19.5 -102v-119q22 -36 66.5 -62t92.5 -26q79 0 124 58t45 149q0 55 -19.5 102z" />
    <glyph glyph-name="uni03C2" unicode="&#x3c2;" horiz-adv-x="479" 
d="M82.5 370q29.5 58 83 91.5t122.5 33.5q52 0 88.5 -16t67.5 -49q7 -9 7 -17q0 -10 -6.5 -17t-17.5 -7q-10 0 -16 7q-26 28 -55 40t-65 12q-55 0 -96.5 -27t-63.5 -74t-22 -105q0 -99 58 -147t158 -48q62 0 90.5 -18.5t28.5 -62.5t-32 -113q-3 -6 -9 -9.5t-12 -3.5
q-10 0 -17.5 7t-7.5 17q0 4 3 12q24 50 24 83q0 23 -17.5 32t-53.5 9q-125 0 -197 62.5t-72 179.5q0 70 29.5 128z" />
    <glyph glyph-name="sigma" unicode="&#x3c3;" 
d="M539.5 476q7.5 -7 7.5 -17q0 -9 -7.5 -16t-16.5 -7h-105q46 -35 71.5 -84.5t25.5 -121.5q0 -66 -28 -121.5t-80.5 -88t-121.5 -32.5t-121.5 33.5t-81.5 91.5t-29 129q0 67 29.5 122t86 87t133.5 32h221q9 0 16.5 -7zM431 358q-31 53 -82 78h-47q-62 0 -105.5 -27.5
t-65.5 -72t-22 -94.5q0 -55 21 -102.5t61 -76t94 -28.5q55 0 95 28t61 74t21 98q0 70 -31 123z" />
    <glyph glyph-name="tau" unicode="&#x3c4;" horiz-adv-x="453" 
d="M420 476q7 -7 7 -17q0 -9 -7 -15.5t-16 -6.5h-157v-336q0 -30 12.5 -48t37.5 -18q20 0 39 12q5 3 10 3q9 0 15.5 -6.5t6.5 -16.5q0 -13 -12 -20q-27 -19 -67 -19q-47 0 -70.5 27.5t-23.5 77.5v344h-146q-9 0 -16.5 6.5t-7.5 15.5q0 10 7.5 17t16.5 7h355q9 0 16 -7z" />
    <glyph glyph-name="upsilon" unicode="&#x3c5;" horiz-adv-x="555" 
d="M129.5 47q-48.5 59 -48.5 162v251q0 11 8 18.5t18 7.5q11 0 18.5 -7.5t7.5 -18.5v-250q0 -82 36 -128.5t101 -46.5q55 0 95 29t60.5 77t20.5 105q0 120 -64 203q-4 7 -4 15q0 11 8 18.5t18 7.5q13 0 22 -12q37 -50 56.5 -109t19.5 -123q0 -73 -28.5 -131.5t-81.5 -92.5
t-122 -34q-92 0 -140.5 59z" />
    <glyph glyph-name="phi" unicode="&#x3c6;" horiz-adv-x="696" 
d="M573 59.5q-69 -66.5 -199 -70.5v-150q0 -11 -7.5 -18.5t-18.5 -7.5q-10 0 -18 7.5t-8 18.5v150q-130 4 -199.5 75t-69.5 188q0 76 42.5 135t109.5 95q7 4 13 4q10 0 17 -7t7 -17q0 -7 -3 -12.5t-8 -7.5q-58 -33 -90 -80.5t-32 -109.5q0 -96 53 -154.5t160 -62.5v419
q0 14 9.5 23.5t22.5 8.5q142 -2 215 -70t73 -180q0 -110 -69 -176.5zM533 92q53 55 53 144t-53 142.5t-159 57.5v-401q106 2 159 57z" />
    <glyph glyph-name="chi" unicode="&#x3c7;" horiz-adv-x="479" 
d="M453 -161q0 -10 -8 -18t-18 -8q-7 0 -13 3.5t-9 9.5l-165 282l-165 -282q-8 -13 -23 -13q-10 0 -17.5 8t-7.5 18q0 7 3 13l180 306l-169 289q-4 10 -4 13q0 10 8 18t18 8q7 0 13 -3.5t9 -9.5l155 -264l154 264q3 6 9 9.5t13 3.5q11 0 18.5 -8t7.5 -18q0 -3 -4 -13
l-169 -288l180 -307q4 -8 4 -13z" />
    <glyph glyph-name="psi" unicode="&#x3c8;" horiz-adv-x="704" 
d="M579 478.5q8 7.5 18 7.5q11 0 18.5 -7.5t7.5 -18.5v-245q0 -103 -61 -161.5t-184 -64.5v-150q0 -11 -7.5 -18.5t-18.5 -7.5q-10 0 -18 7.5t-8 18.5v150q-123 5 -184 64t-61 162v245q0 11 8 18.5t18 7.5q11 0 18.5 -7.5t7.5 -18.5v-245q0 -81 49 -127.5t144 -51.5v608
q0 11 8 18.5t18 7.5q11 0 18.5 -7.5t7.5 -18.5v-608q95 5 144 51.5t49 127.5v245q0 11 8 18.5z" />
    <glyph glyph-name="omega" unicode="&#x3c9;" horiz-adv-x="771" 
d="M438.5 32.5q-38.5 44.5 -53.5 106.5q-16 -62 -53.5 -106.5t-102.5 -44.5q-53 0 -93 33t-61.5 89t-21.5 122q0 171 82 252q8 8 18 8q11 0 18.5 -7.5t7.5 -18.5q0 -9 -5 -16q-65 -71 -65 -218q0 -50 15 -95.5t43 -73.5t67 -28q60 0 92.5 60t32.5 147v100q0 11 7.5 19
t18.5 8t19 -8t8 -19v-100q0 -87 32 -147t92 -60q39 0 67.5 28t43 73t14.5 96q0 70 -14.5 124.5t-49.5 93.5q-5 7 -5 16q0 11 7.5 18.5t18.5 7.5q10 0 18 -8q81 -80 81 -252q0 -66 -21.5 -122t-61.5 -89t-92 -33q-65 0 -103.5 44.5z" />
    <glyph glyph-name="iotadieresis" unicode="&#x3ca;" horiz-adv-x="228" 
d="M104.5 15q-23.5 27 -23.5 78v367q0 11 8 18.5t18 7.5q11 0 18.5 -7.5t7.5 -18.5v-361q0 -29 11.5 -46t34.5 -18h8q10 -1 15 -8t5 -15q0 -10 -6 -16.5t-15 -7.5h-11q-47 0 -70.5 27zM-21 599q-11 11 -11 27q0 15 11 26t26 11t26 -11t11 -26q0 -16 -11 -27t-26 -11t-26 11z
M183 599q-11 11 -11 27q0 15 11 26t26 11t26.5 -11t11.5 -26q0 -16 -11.5 -27t-26.5 -11t-26 11z" />
    <glyph glyph-name="upsilondieresis" unicode="&#x3cb;" horiz-adv-x="555" 
d="M129.5 47q-48.5 59 -48.5 162v251q0 11 8 18.5t18 7.5q11 0 18.5 -7.5t7.5 -18.5v-250q0 -82 36 -128.5t101 -46.5q55 0 95 29t60.5 77t20.5 105q0 120 -64 203q-4 7 -4 15q0 11 8 18.5t18 7.5q13 0 22 -12q37 -50 56.5 -109t19.5 -123q0 -73 -28.5 -131.5t-81.5 -92.5
t-122 -34q-92 0 -140.5 59zM142 599q-11 11 -11 27q0 15 11 26t26 11t26 -11t11 -26q0 -16 -11 -27t-26 -11t-26 11zM346 599q-11 11 -11 27q0 15 11 26t26 11t26.5 -11t11.5 -26q0 -16 -11.5 -27t-26.5 -11t-26 11z" />
    <glyph glyph-name="omicrontonos" unicode="&#x3cc;" 
d="M163.5 21.5q-52.5 33.5 -81.5 91.5t-29 129t29 128.5t81.5 91t121.5 33.5q70 0 123 -33.5t81.5 -91t28.5 -128.5t-28.5 -129t-81.5 -91.5t-123 -33.5q-69 0 -121.5 33.5zM380 63.5q40 28.5 61 76t21 102.5t-21 102t-61 75.5t-95 28.5q-54 0 -94 -28.5t-61 -75.5t-21 -102
t21 -102.5t61 -76t94 -28.5q55 0 95 28.5zM275 593.5q-5 5.5 -4 12.5l15 157q1 11 9.5 19t19.5 8q12 0 20.5 -9t8.5 -20l-2 -12l-40 -149q-1 -5 -5.5 -8.5t-9.5 -3.5q-7 0 -12 5.5z" />
    <glyph glyph-name="upsilontonos" unicode="&#x3cd;" horiz-adv-x="555" 
d="M129.5 47q-48.5 59 -48.5 162v251q0 11 8 18.5t18 7.5q11 0 18.5 -7.5t7.5 -18.5v-250q0 -82 36 -128.5t101 -46.5q55 0 95 29t60.5 77t20.5 105q0 120 -64 203q-4 7 -4 15q0 11 8 18.5t18 7.5q13 0 22 -12q37 -50 56.5 -109t19.5 -123q0 -73 -28.5 -131.5t-81.5 -92.5
t-122 -34q-92 0 -140.5 59zM260 593.5q-5 5.5 -4 12.5l15 157q1 11 9.5 19t19.5 8q12 0 20.5 -9t8.5 -20l-2 -12l-40 -149q-1 -5 -5.5 -8.5t-9.5 -3.5q-7 0 -12 5.5z" />
    <glyph glyph-name="omegatonos" unicode="&#x3ce;" horiz-adv-x="771" 
d="M438.5 32.5q-38.5 44.5 -53.5 106.5q-16 -62 -53.5 -106.5t-102.5 -44.5q-53 0 -93 33t-61.5 89t-21.5 122q0 171 82 252q8 8 18 8q11 0 18.5 -7.5t7.5 -18.5q0 -9 -5 -16q-65 -71 -65 -218q0 -50 15 -95.5t43 -73.5t67 -28q60 0 92.5 60t32.5 147v100q0 11 7.5 19
t18.5 8t19 -8t8 -19v-100q0 -87 32 -147t92 -60q39 0 67.5 28t43 73t14.5 96q0 70 -14.5 124.5t-49.5 93.5q-5 7 -5 16q0 11 7.5 18.5t18.5 7.5q10 0 18 -8q81 -80 81 -252q0 -66 -21.5 -122t-61.5 -89t-92 -33q-65 0 -103.5 44.5zM375 593.5q-5 5.5 -4 12.5l15 157
q1 11 9.5 19t19.5 8q12 0 20.5 -9t8.5 -20l-2 -12l-40 -149q-1 -5 -5.5 -8.5t-9.5 -3.5q-7 0 -12 5.5z" />
    <glyph glyph-name="uni0401" unicode="&#x401;" horiz-adv-x="564" 
d="M91 8.5q-8 8.5 -8 22.5v605q0 31 31 31h369q11 0 18.5 -7.5t7.5 -18.5q0 -10 -7.5 -18t-18.5 -8h-343v-247h336q11 0 18.5 -7.5t7.5 -18.5q0 -10 -7.5 -18t-18.5 -8h-336v-264h343q11 0 18.5 -7.5t7.5 -18.5q0 -10 -7.5 -18t-18.5 -8h-369q-15 0 -23 8.5zM171 746
q-11 11 -11 27q0 15 11 26t26 11t26 -11t11 -26q0 -16 -11 -27t-26 -11t-26 11zM375 746q-11 11 -11 27q0 15 11 26t26 11t26.5 -11t11.5 -26q0 -16 -11.5 -27t-26.5 -11t-26 11z" />
    <glyph glyph-name="uni0402" unicode="&#x402;" horiz-adv-x="773" 
d="M503 32.5q7 7.5 16 8.5q63 5 95 38.5t32 104.5v17q0 78 -36.5 113.5t-117.5 35.5q-51 0 -98.5 -9t-82.5 -26v-289q0 -11 -8.5 -20t-20.5 -9t-20.5 9t-8.5 20v589h-195q-10 0 -18 8t-8 18q0 11 8 18.5t18 7.5h449q11 0 18.5 -7.5t7.5 -18.5q0 -10 -7.5 -18t-18.5 -8h-196
v-253q90 40 192 40q104 0 152.5 -49t48.5 -152v-17q0 -100 -48 -144.5t-131 -50.5q-11 -1 -20 7t-9 19q0 10 7 17.5z" />
    <glyph glyph-name="uni0403" unicode="&#x403;" horiz-adv-x="539" 
d="M91.5 6q-8.5 9 -8.5 20v610q0 31 31 31h369q11 0 18.5 -7.5t7.5 -18.5q0 -10 -7.5 -18t-18.5 -8h-343v-589q0 -12 -8 -20.5t-20 -8.5t-20.5 9zM311 720q-7 0 -12 5t-5 12t6 13l123 114q6 6 15 6t15.5 -6.5t6.5 -15.5t-8 -17l-129 -106q-4 -5 -12 -5z" />
    <glyph glyph-name="uni0404" unicode="&#x404;" horiz-adv-x="672" 
d="M497 61.5q48 21.5 82 60.5q8 9 20 9t20.5 -8.5t8.5 -19.5q0 -13 -8 -19q-91 -96 -224 -96q-94 0 -171.5 43.5t-122 122.5t-44.5 179t44.5 179t122 122.5t171.5 43.5q134 0 224 -95q7 -7 7 -19t-8 -20t-20 -8q-13 0 -21 9q-34 38 -81.5 59.5t-100.5 21.5q-72 0 -132 -32.5
t-98 -91t-45 -134.5h378q11 0 18.5 -7.5t7.5 -18.5q0 -10 -7.5 -18t-18.5 -8h-379q3 -80 40 -143t99 -98t137 -35q53 0 101 21.5z" />
    </font>
</defs>
</svg>
