<?xml version="1.0" standalone="no"?>
<!DOCTYPE svg PUBLIC "-//W3C//DTD SVG 1.1//EN" "http://www.w3.org/Graphics/SVG/1.1/DTD/svg11.dtd" >
<svg xmlns="http://www.w3.org/2000/svg" xmlns:xlink="http://www.w3.org/1999/xlink" version="1.1">
<metadata>
Created by FontForge 20161003 at Wed Apr 12 15:33:45 2017
 By www-data
Copyright (c) Mark Simonson, 2016. All rights reserved.
</metadata>
<defs>
<font id="MarkSimonsonProximaSoft" horiz-adv-x="551" >
  <font-face 
    font-family="MarkSimonsonProximaSoft"
    font-weight="400"
    font-stretch="normal"
    units-per-em="1000"
    panose-1="2 0 5 6 3 0 0 2 0 4"
    ascent="790"
    descent="-210"
    x-height="483"
    cap-height="667"
    bbox="-356 -317 1136 1083"
    underline-thickness="20"
    underline-position="-153"
    unicode-range="U+000D-FB04"
  />
<missing-glyph horiz-adv-x="507" 
d="M89.5 -78.5q-11.5 11.5 -11.5 30.5v758q0 19 11.5 30.5t30.5 11.5h267q19 0 30.5 -11.5t11.5 -30.5v-758q0 -19 -11.5 -30.5t-30.5 -11.5h-267q-19 0 -30.5 11.5zM397 722h-288v-782h288v782z" />
    <glyph glyph-name="f_f_j" unicode="ffj" horiz-adv-x="791" 
d="M299.5 660q6.5 -8 6.5 -19q0 -13 -8 -21.5t-22 -8.5q-5 0 -13.5 2t-15.5 2q-37 0 -56.5 -24.5t-19.5 -70.5v-37h69q14 0 23.5 -9.5t9.5 -23.5q0 -13 -9.5 -23t-23.5 -10h-69v-384q0 -15 -11 -26t-26 -11q-16 0 -27 11t-11 26v384h-51q-14 0 -24 10t-10 23t10 23t24 10h51
v37q0 74 38 115.5t102 41.5q25 0 47 -6q10 -3 16.5 -11zM582.5 660q6.5 -8 6.5 -19q0 -13 -8 -21.5t-22 -8.5q-5 0 -13.5 2t-15.5 2q-37 0 -56.5 -24.5t-19.5 -70.5v-37h69q14 0 23.5 -9.5t9.5 -23.5q0 -13 -9.5 -23t-23.5 -10h-69v-384q0 -15 -11 -26t-26 -11q-16 0 -27 11
t-11 26v384h-51q-14 0 -24 10t-10 23t10 23t24 10h51v37q0 74 38 115.5t102 41.5q25 0 47 -6q10 -3 16.5 -11zM643 595.5q-15 14.5 -15 35.5t15 36t35 15q21 0 36 -15t15 -36t-15 -35.5t-36 -14.5q-20 0 -35 14.5zM550 -194q-12 1 -21 10t-9 22t8.5 23t20.5 10q2 0 6.5 -1
t10.5 -1q75 0 75 84v497q0 15 11 26t27 11q15 0 26 -11t11 -26v-497q0 -71 -37 -110t-105 -39q-8 0 -24 2z" />
    <glyph glyph-name="f_j" unicode="fj" horiz-adv-x="508" 
d="M299.5 660q6.5 -8 6.5 -19q0 -13 -8 -21.5t-22 -8.5q-5 0 -13.5 2t-15.5 2q-37 0 -56.5 -24.5t-19.5 -70.5v-37h69q14 0 23.5 -9.5t9.5 -23.5q0 -13 -9.5 -23t-23.5 -10h-69v-384q0 -15 -11 -26t-26 -11q-16 0 -27 11t-11 26v384h-51q-14 0 -24 10t-10 23t10 23t24 10h51
v37q0 74 38 115.5t102 41.5q25 0 47 -6q10 -3 16.5 -11zM360 595.5q-15 14.5 -15 35.5t15 36t35 15q21 0 36 -15t15 -36t-15 -35.5t-36 -14.5q-20 0 -35 14.5zM267 -194q-12 1 -21 10t-9 22t8.5 23t20.5 10q2 0 6.5 -1t10.5 -1q75 0 75 84v497q0 15 11 26t27 11q15 0 26 -11
t11 -26v-497q0 -71 -37 -110t-105 -39q-8 0 -24 2z" />
    <glyph glyph-name="f_f" unicode="ff" horiz-adv-x="566" 
d="M299.5 660q6.5 -8 6.5 -19q0 -13 -8 -21.5t-22 -8.5q-5 0 -13.5 2t-15.5 2q-37 0 -56.5 -24.5t-19.5 -70.5v-37h69q14 0 23.5 -9.5t9.5 -23.5q0 -13 -9.5 -23t-23.5 -10h-69v-384q0 -15 -11 -26t-26 -11q-16 0 -27 11t-11 26v384h-51q-14 0 -24 10t-10 23t10 23t24 10h51
v37q0 74 38 115.5t102 41.5q25 0 47 -6q10 -3 16.5 -11zM582.5 660q6.5 -8 6.5 -19q0 -13 -8 -21.5t-22 -8.5q-5 0 -13.5 2t-15.5 2q-37 0 -56.5 -24.5t-19.5 -70.5v-37h69q14 0 23.5 -9.5t9.5 -23.5q0 -13 -9.5 -23t-23.5 -10h-69v-384q0 -15 -11 -26t-26 -11q-16 0 -27 11
t-11 26v384h-51q-14 0 -24 10t-10 23t10 23t24 10h51v37q0 74 38 115.5t102 41.5q25 0 47 -6q10 -3 16.5 -11z" />
    <glyph glyph-name="fi" unicode="fi" horiz-adv-x="508" 
d="M299.5 660q6.5 -8 6.5 -19q0 -13 -8 -21.5t-22 -8.5q-5 0 -13.5 2t-15.5 2q-37 0 -56.5 -24.5t-19.5 -70.5v-37h69q14 0 23.5 -9.5t9.5 -23.5q0 -13 -9.5 -23t-23.5 -10h-69v-384q0 -15 -11 -26t-26 -11q-16 0 -27 11t-11 26v384h-51q-14 0 -24 10t-10 23t10 23t24 10h51
v37q0 74 38 115.5t102 41.5q25 0 47 -6q10 -3 16.5 -11zM360 595.5q-15 14.5 -15 35.5t15 36t35 15q21 0 36 -15t15 -36t-15 -35.5t-36 -14.5q-20 0 -35 14.5zM369 7q-11 11 -11 26v417q0 15 11 26t27 11q15 0 26 -11t11 -26v-417q0 -15 -11 -26t-27 -11q-15 0 -26 11z" />
    <glyph glyph-name="fl" unicode="fl" horiz-adv-x="508" 
d="M299.5 660q6.5 -8 6.5 -19q0 -13 -8 -21.5t-22 -8.5q-5 0 -13.5 2t-15.5 2q-37 0 -56.5 -24.5t-19.5 -70.5v-37h69q14 0 23.5 -9.5t9.5 -23.5q0 -13 -9.5 -23t-23.5 -10h-69v-384q0 -15 -11 -26t-26 -11q-16 0 -27 11t-11 26v384h-51q-14 0 -24 10t-10 23t10 23t24 10h51
v37q0 74 38 115.5t102 41.5q25 0 47 -6q10 -3 16.5 -11zM369 7q-11 11 -11 26v601q0 15 11 26t27 11q15 0 26 -11t11 -26v-601q0 -15 -11 -26t-26 -11q-16 0 -27 11z" />
    <glyph glyph-name="f_f_i" unicode="ffi" horiz-adv-x="791" 
d="M299.5 660q6.5 -8 6.5 -19q0 -13 -8 -21.5t-22 -8.5q-5 0 -13.5 2t-15.5 2q-37 0 -56.5 -24.5t-19.5 -70.5v-37h69q14 0 23.5 -9.5t9.5 -23.5q0 -13 -9.5 -23t-23.5 -10h-69v-384q0 -15 -11 -26t-26 -11q-16 0 -27 11t-11 26v384h-51q-14 0 -24 10t-10 23t10 23t24 10h51
v37q0 74 38 115.5t102 41.5q25 0 47 -6q10 -3 16.5 -11zM582.5 660q6.5 -8 6.5 -19q0 -13 -8 -21.5t-22 -8.5q-5 0 -13.5 2t-15.5 2q-37 0 -56.5 -24.5t-19.5 -70.5v-37h69q14 0 23.5 -9.5t9.5 -23.5q0 -13 -9.5 -23t-23.5 -10h-69v-384q0 -15 -11 -26t-26 -11q-16 0 -27 11
t-11 26v384h-51q-14 0 -24 10t-10 23t10 23t24 10h51v37q0 74 38 115.5t102 41.5q25 0 47 -6q10 -3 16.5 -11zM643 595.5q-15 14.5 -15 35.5t15 36t35 15q21 0 36 -15t15 -36t-15 -35.5t-36 -14.5q-20 0 -35 14.5zM652 7q-11 11 -11 26v417q0 15 11 26t27 11q15 0 26 -11
t11 -26v-417q0 -15 -11 -26t-27 -11q-15 0 -26 11z" />
    <glyph glyph-name="f_f_l" unicode="ffl" horiz-adv-x="791" 
d="M299.5 660q6.5 -8 6.5 -19q0 -13 -8 -21.5t-22 -8.5q-5 0 -13.5 2t-15.5 2q-37 0 -56.5 -24.5t-19.5 -70.5v-37h69q14 0 23.5 -9.5t9.5 -23.5q0 -13 -9.5 -23t-23.5 -10h-69v-384q0 -15 -11 -26t-26 -11q-16 0 -27 11t-11 26v384h-51q-14 0 -24 10t-10 23t10 23t24 10h51
v37q0 74 38 115.5t102 41.5q25 0 47 -6q10 -3 16.5 -11zM582.5 660q6.5 -8 6.5 -19q0 -13 -8 -21.5t-22 -8.5q-5 0 -13.5 2t-15.5 2q-37 0 -56.5 -24.5t-19.5 -70.5v-37h69q14 0 23.5 -9.5t9.5 -23.5q0 -13 -9.5 -23t-23.5 -10h-69v-384q0 -15 -11 -26t-26 -11q-16 0 -27 11
t-11 26v384h-51q-14 0 -24 10t-10 23t10 23t24 10h51v37q0 74 38 115.5t102 41.5q25 0 47 -6q10 -3 16.5 -11zM652 7q-11 11 -11 26v601q0 15 11 26t27 11q15 0 26 -11t11 -26v-601q0 -15 -11 -26t-26 -11q-16 0 -27 11z" />
    <glyph glyph-name="f_b" unicode="fb" horiz-adv-x="858" 
d="M299.5 660q6.5 -8 6.5 -19q0 -13 -8 -21.5t-22 -8.5q-5 0 -13.5 2t-15.5 2q-37 0 -56.5 -24.5t-19.5 -70.5v-37h69q14 0 23.5 -9.5t9.5 -23.5q0 -13 -9.5 -23t-23.5 -10h-69v-384q0 -15 -11 -26t-26 -11q-16 0 -27 11t-11 26v384h-51q-14 0 -24 10t-10 23t10 23t24 10h51
v37q0 74 38 115.5t102 41.5q25 0 47 -6q10 -3 16.5 -11zM707.5 463.5q48.5 -31.5 76 -89t27.5 -133.5q0 -77 -27.5 -134.5t-76 -88t-111.5 -30.5q-49 0 -91.5 23t-71.5 61v-39q0 -15 -11 -26t-26 -11q-16 0 -27 11t-11 26v601q0 15 11 26t27 11q15 0 26 -11t11 -26v-225
q29 41 71.5 63.5t91.5 22.5q63 0 111.5 -31.5zM691 107q42 52 42 134t-42 134.5t-114 52.5q-43 0 -83.5 -22.5t-60.5 -55.5v-219q20 -32 60.5 -54t83.5 -22q72 0 114 52z" />
    <glyph glyph-name="f_h" unicode="fh" horiz-adv-x="835" 
d="M299.5 660q6.5 -8 6.5 -19q0 -13 -8 -21.5t-22 -8.5q-5 0 -13.5 2t-15.5 2q-37 0 -56.5 -24.5t-19.5 -70.5v-37h69q14 0 23.5 -9.5t9.5 -23.5q0 -13 -9.5 -23t-23.5 -10h-69v-384q0 -15 -11 -26t-26 -11q-16 0 -27 11t-11 26v384h-51q-14 0 -24 10t-10 23t10 23t24 10h51
v37q0 74 38 115.5t102 41.5q25 0 47 -6q10 -3 16.5 -11zM696 7q-11 11 -11 26v285q0 60 -28 85t-81 25q-41 0 -80.5 -22t-62.5 -53v-320q0 -15 -11 -26t-26 -11q-16 0 -27 11t-11 26v601q0 15 11 26t27 11q15 0 26 -11t11 -26v-221q28 33 75 57.5t98 24.5q154 0 154 -154
v-308q0 -15 -11 -26t-27 -11q-15 0 -26 11z" />
    <glyph glyph-name="f_k" unicode="fk" horiz-adv-x="797" 
d="M299.5 660q6.5 -8 6.5 -19q0 -13 -8 -21.5t-22 -8.5q-5 0 -13.5 2t-15.5 2q-37 0 -56.5 -24.5t-19.5 -70.5v-37h69q14 0 23.5 -9.5t9.5 -23.5q0 -13 -9.5 -23t-23.5 -10h-69v-384q0 -15 -11 -26t-26 -11q-16 0 -27 11t-11 26v384h-51q-14 0 -24 10t-10 23t10 23t24 10h51
v37q0 74 38 115.5t102 41.5q25 0 47 -6q10 -3 16.5 -11zM758 34q0 -16 -10.5 -27t-26.5 -11q-18 0 -29 12l-177 208l-82 -76v-107q0 -15 -11 -26t-27 -11q-15 0 -26 11t-11 26v601q0 15 11 26t27 11q15 0 26 -11t11 -26v-409l261 253q9 9 24 9q14 0 24 -10.5t10 -24.5
t-10 -24l-173 -166l180 -203q9 -10 9 -25z" />
    <glyph glyph-name=".notdef" horiz-adv-x="507" 
d="M89.5 -78.5q-11.5 11.5 -11.5 30.5v758q0 19 11.5 30.5t30.5 11.5h267q19 0 30.5 -11.5t11.5 -30.5v-758q0 -19 -11.5 -30.5t-30.5 -11.5h-267q-19 0 -30.5 11.5zM397 722h-288v-782h288v782z" />
    <glyph glyph-name=".null" horiz-adv-x="0" 
 />
    <glyph glyph-name="nonmarkingreturn" unicode="&#xd;" horiz-adv-x="0" 
 />
    <glyph glyph-name="NULL" horiz-adv-x="0" 
 />
    <glyph glyph-name="NULL" horiz-adv-x="0" 
 />
    <glyph glyph-name="space" unicode=" " horiz-adv-x="258" 
 />
    <glyph glyph-name="exclam" unicode="!" horiz-adv-x="230" 
d="M92.5 191q-9.5 9 -9.5 22l-14 412q0 18 13.5 32t32.5 14t32.5 -13.5t12.5 -32.5l-12 -412q-1 -13 -10.5 -22t-22.5 -9t-22.5 9zM76.5 84q16.5 16 38.5 16q23 0 39 -16t16 -39q0 -22 -16.5 -38.5t-38.5 -16.5t-38.5 16.5t-16.5 38.5q0 23 16.5 39z" />
    <glyph glyph-name="quotedbl" unicode="&#x22;" horiz-adv-x="343" 
d="M85 412.5q-6 5.5 -7 13.5l-8 62q-16 139 -16 143q0 19 13 32.5t32 13.5t32.5 -13.5t13.5 -32.5q0 -8 -9 -80.5t-16 -124.5q-1 -8 -7 -13.5t-14 -5.5t-14 5.5zM230.5 412.5q-5.5 5.5 -6.5 13.5q-8 53 -15.5 116.5t-9.5 88.5q0 19 13.5 32.5t32.5 13.5t32 -13.5t13 -32.5
q-2 -25 -9.5 -88.5t-15.5 -116.5q-1 -8 -6.5 -13.5t-13.5 -5.5q-9 0 -14.5 5.5z" />
    <glyph glyph-name="numbersign" unicode="#" horiz-adv-x="590" 
d="M557 477.5q8 -7.5 8 -18.5t-8 -18.5t-19 -7.5h-93l-67 -199h80q11 0 18.5 -8t7.5 -19t-7.5 -18.5t-18.5 -7.5h-97l-56 -165q-2 -9 -10 -14.5t-17 -5.5q-12 0 -20.5 8.5t-8.5 19.5q0 4 2 12l49 145h-111l-55 -165q-3 -9 -10.5 -14.5t-17.5 -5.5q-12 0 -20.5 8.5t-8.5 19.5
q0 5 2 11l49 146h-74q-11 0 -19 7.5t-8 18.5t8 19t19 8h92l66 199h-77q-11 0 -18.5 7.5t-7.5 18.5t7.5 18.5t18.5 7.5h95l55 166q3 10 10.5 15t17.5 5q12 0 20.5 -8.5t8.5 -19.5q0 -5 -2 -11l-49 -147h111l54 166q3 9 11 14.5t17 5.5q12 0 20.5 -8.5t8.5 -19.5q0 -5 -2 -11
l-49 -147h76q11 0 19 -7.5zM316 234l68 199h-111l-66 -199h109z" />
    <glyph glyph-name="dollar" unicode="$" horiz-adv-x="593" 
d="M492 53q-52 -55 -160 -63v-64q0 -12 -9 -21t-22 -9t-21.5 9t-8.5 21v63q-118 6 -203 80q-15 13 -15 32q0 17 12 28.5t28 11.5t25 -9q65 -58 153 -68v243q-64 17 -107 36t-72 55.5t-29 93.5q0 51 27 91.5t74 65t107 28.5v65q0 12 8.5 21t21.5 9t22 -9t9 -21v-67
q98 -7 169 -67q16 -12 16 -32q0 -16 -11.5 -28t-27.5 -12q-13 0 -24 9q-52 45 -122 54v-217q65 -18 109 -39t73.5 -59.5t29.5 -99.5q0 -76 -52 -131zM180.5 436.5q31.5 -21.5 90.5 -38.5v204q-54 -3 -88 -32t-34 -73q0 -39 31.5 -60.5zM428.5 103q30.5 33 30.5 74
q0 46 -32.5 70.5t-94.5 43.5v-226q66 5 96.5 38z" />
    <glyph glyph-name="percent" unicode="%" horiz-adv-x="731" 
d="M107.5 369q-36.5 21 -56.5 58.5t-20 83.5q0 47 20.5 84.5t56.5 59.5t83 22t84 -22t57.5 -59.5t20.5 -84.5q0 -46 -20.5 -83.5t-57.5 -58.5t-84 -21t-83.5 21zM151 2.5q-7 6.5 -7 15.5q0 5 4 13l402 630q7 10 20 10q9 0 15.5 -6.5t6.5 -16.5q0 -7 -3 -13l-403 -629
q-7 -10 -19 -10q-9 0 -16 6.5zM264.5 428.5q28.5 33.5 28.5 82.5q0 51 -28.5 84.5t-73.5 33.5q-44 0 -72 -33.5t-28 -84.5q0 -49 28 -82.5t72 -33.5q45 0 73.5 33.5zM455.5 9q-36.5 21 -56.5 58.5t-20 83.5q0 47 20.5 84.5t56.5 59.5t83 22t83.5 -22t57 -59.5t20.5 -84.5
q0 -46 -20.5 -83.5t-57 -58.5t-83.5 -21t-83.5 21zM612.5 68q28.5 33 28.5 83q0 51 -28.5 84.5t-73.5 33.5t-73 -33.5t-28 -84.5q0 -50 28 -83t73 -33t73.5 33z" />
    <glyph glyph-name="ampersand" unicode="&#x26;" horiz-adv-x="641" 
d="M579 33q0 -15 -10.5 -26t-25.5 -11q-13 0 -23 7q-23 18 -80 71q-86 -86 -196 -86q-91 0 -149.5 48.5t-58.5 137.5q0 71 39 116t109 83q-52 86 -52 149q0 44 22.5 79.5t61 55.5t84.5 20q67 0 109 -34.5t42 -96.5q0 -47 -23 -80.5t-57 -56t-90 -50.5q36 -50 77 -96
q36 -42 80 -87q35 52 61 121q4 9 12.5 15t18.5 6q14 0 24.5 -10t10.5 -23q0 -8 -4 -16q-40 -89 -75 -139q44 -41 79 -68q14 -10 14 -29zM250 406q66 33 99 62.5t33 74.5q0 36 -22 55.5t-57 19.5q-39 0 -66 -27.5t-27 -69.5q0 -45 40 -115zM393 119q-61 59 -94 98
q-55 66 -83 106q-47 -29 -73 -62.5t-26 -81.5q0 -60 39.5 -94.5t94.5 -34.5q76 0 142 69z" />
    <glyph glyph-name="quotesingle" unicode="'" horiz-adv-x="199" 
d="M85 412.5q-6 5.5 -7 13.5l-8 62q-16 139 -16 143q0 19 13 32.5t32 13.5t32.5 -13.5t13.5 -32.5q0 -8 -9 -80.5t-16 -124.5q-1 -8 -7 -13.5t-14 -5.5t-14 5.5z" />
    <glyph glyph-name="parenleft" unicode="(" horiz-adv-x="248" 
d="M169 -176q-61 92 -93 199.5t-32 219.5t32 219.5t93 200.5q8 13 25 13q13 0 21.5 -9t8.5 -21q0 -10 -3 -15q-48 -97 -71.5 -187t-23.5 -201t23.5 -200.5t70.5 -186.5q4 -7 4 -15q0 -13 -8.5 -22t-21.5 -9q-17 0 -25 14z" />
    <glyph glyph-name="parenright" unicode=")" horiz-adv-x="248" 
d="M32 -181q-9 9 -9 22q0 8 4 15q48 98 71.5 187t23.5 200t-23.5 201t-71.5 187q-4 7 -4 15q0 12 9 21t22 9q15 0 25 -13q61 -93 93 -200.5t32 -219.5t-32 -219.5t-93 -199.5q-9 -14 -25 -14q-13 0 -22 9z" />
    <glyph glyph-name="asterisk" unicode="*" horiz-adv-x="340" 
d="M154 391.5q-7 6.5 -6 16.5l4 96l-80 -53q-6 -3 -12 -3q-9 0 -15.5 6.5t-6.5 14.5q0 13 12 20l86 44l-86 44q-12 7 -12 19q0 9 6.5 15t15.5 6q6 0 12 -3l80 -52l-4 97q-1 8 6 15t16 7t15.5 -6.5t6.5 -15.5l-5 -97l80 52q6 3 12 3q9 0 15.5 -6t6.5 -15q0 -12 -12 -19
l-85 -44l85 -44q12 -7 12 -20q0 -8 -6.5 -14.5t-15.5 -6.5q-6 0 -12 3l-80 53l5 -96q0 -10 -6.5 -16.5t-15.5 -6.5t-16 6.5z" />
    <glyph glyph-name="plus" unicode="+" horiz-adv-x="499" 
d="M278 122q0 -11 -8.5 -20t-20.5 -9q-11 0 -19.5 9t-8.5 20v189h-170q-11 0 -18.5 7.5t-7.5 18.5t7.5 18.5t18.5 7.5h170v183q0 11 8.5 19.5t19.5 8.5q12 0 20.5 -8.5t8.5 -19.5v-183h170q11 0 18.5 -7.5t7.5 -18.5t-7.5 -18.5t-18.5 -7.5h-170v-189z" />
    <glyph glyph-name="comma" unicode="," horiz-adv-x="230" 
d="M92 -123q-10 0 -16.5 6.5t-6.5 16.5q0 11 7 17q19 19 31.5 40t14.5 40q-6 -2 -14 -2q-21 0 -34.5 14.5t-13.5 36.5t15.5 38t37.5 16q26 0 44.5 -20.5t18.5 -55.5q0 -40 -18.5 -77t-50.5 -64q-6 -6 -15 -6z" />
    <glyph glyph-name="hyphen" unicode="-" horiz-adv-x="300" 
d="M36 219q-10 10 -10 23q0 14 10 23.5t23 9.5h182q14 0 23.5 -9.5t9.5 -23.5q0 -13 -9.5 -23t-23.5 -10h-182q-13 0 -23 10z" />
    <glyph glyph-name="period" unicode="." horiz-adv-x="230" 
d="M76.5 84q16.5 16 38.5 16q23 0 39 -16t16 -39q0 -22 -16 -38.5t-39 -16.5q-22 0 -38.5 16.5t-16.5 38.5q0 23 16.5 39z" />
    <glyph glyph-name="slash" unicode="/" horiz-adv-x="296" 
d="M17.5 -15.5q-8.5 8.5 -8.5 19.5q0 4 2 10l221 658q3 8 10 13.5t17 5.5q11 0 19.5 -8.5t8.5 -19.5q0 -4 -2 -10l-221 -658q-3 -8 -10 -13.5t-17 -5.5q-11 0 -19.5 8.5z" />
    <glyph glyph-name="zero" unicode="0" horiz-adv-x="612" 
d="M78 498.5q27 78.5 84 128.5t144 50q86 0 143.5 -50t84.5 -128.5t27 -165.5t-27 -165.5t-84.5 -129t-143.5 -50.5t-143.5 50.5t-84.5 129t-27 165.5t27 165.5zM435 524.5q-41 78.5 -129 78.5t-129 -78.5t-41 -191.5q0 -114 41 -192.5t129 -78.5t129 78.5t41 192.5
q0 113 -41 191.5z" />
    <glyph glyph-name="one" unicode="1" horiz-adv-x="339" 
d="M190 8q-12 12 -12 29v520l-85 -90q-11 -11 -25 -11q-15 0 -25.5 10.5t-10.5 25.5t10 25l136 140q14 14 34 14t34.5 -14t14.5 -34v-586q0 -17 -12 -29t-29 -12q-18 0 -30 12z" />
    <glyph glyph-name="two" unicode="2" horiz-adv-x="582" 
d="M56.5 13q-13.5 13 -13.5 31q0 21 18 36q131 102 204.5 167t113 122.5t39.5 111.5q0 60 -41 91t-98 31q-95 0 -159 -62q-13 -9 -25 -9q-16 0 -26.5 11t-10.5 27q0 17 13 28q40 38 93.5 58.5t114.5 20.5q58 0 109 -22t83 -66.5t32 -107.5q0 -65 -40 -129.5t-108 -128.5
t-176 -149h294q15 0 26 -11t11 -26t-11 -26t-26 -11h-386q-17 0 -30.5 13z" />
    <glyph glyph-name="three" unicode="3" horiz-adv-x="557" 
d="M142.5 11q-55.5 23 -92.5 61q-12 12 -12 28t11 26.5t27 10.5q14 0 24 -9q32 -31 73.5 -48.5t90.5 -17.5q73 0 114.5 33.5t41.5 91.5q0 60 -44.5 89t-121.5 29h-36q-15 0 -26 10.5t-11 26.5q0 15 11 26t26 11h36q68 0 111.5 27.5t43.5 82.5q0 53 -42.5 83.5t-106.5 30.5
q-46 0 -83 -15t-71 -46q-10 -8 -23 -8q-15 0 -25.5 10.5t-10.5 25.5q0 14 13 27q85 80 206 80q99 0 162.5 -47.5t63.5 -130.5q0 -66 -44 -105.5t-100 -49.5q34 -3 69.5 -22.5t60 -55.5t24.5 -86q0 -56 -28.5 -99.5t-82 -68t-125.5 -24.5q-68 0 -123.5 23z" />
    <glyph glyph-name="four" unicode="4" horiz-adv-x="558" 
d="M519 231.5q11 -10.5 11 -25.5q0 -16 -11 -26.5t-26 -10.5h-61v-132q0 -16 -12 -28.5t-29 -12.5q-18 0 -30 12t-12 29v132h-272q-20 0 -34.5 14t-14.5 34q0 16 8 27l264 394q10 15 26 24t34 9q29 0 50.5 -21t21.5 -51v-357h61q15 0 26 -10.5zM115 242h234v348z" />
    <glyph glyph-name="five" unicode="5" horiz-adv-x="590" 
d="M76 98q0 16 11.5 27t27.5 11q15 0 25 -9q62 -65 161 -65q68 0 111 41t43 102q0 65 -42.5 104.5t-110.5 39.5q-76 0 -137 -49q-13 -11 -30 -11q-20 0 -34 14t-14 34v286q0 21 11.5 32.5t32.5 11.5h331q15 0 26 -11t11 -26t-11 -26t-26 -11h-292v-232q26 26 67 43t89 17
q57 0 105.5 -25t77.5 -73.5t29 -114.5t-31 -116t-85 -77t-121 -27q-70 0 -121.5 20.5t-90.5 60.5q-13 13 -13 29z" />
    <glyph glyph-name="six" unicode="6" horiz-adv-x="591" 
d="M80.5 504.5q29.5 78.5 90.5 125.5t151 47q95 0 162 -59q7 -5 11 -13t4 -17q0 -15 -11 -26t-26 -11q-14 0 -22 7q-24 22 -52 33.5t-66 11.5q-62 0 -104 -37t-63 -96.5t-21 -128.5q0 -17 1 -26q25 40 77.5 72t111.5 32q61 0 110.5 -24t78.5 -72t29 -117q0 -59 -28.5 -108.5
t-81.5 -79.5t-124 -30q-131 0 -194 97.5t-63 246.5q0 94 29.5 172.5zM415 310q-43 37 -111 37q-49 0 -94 -27.5t-73 -72.5q7 -74 48 -129.5t120 -55.5q49 0 83.5 21t52 53.5t17.5 66.5q0 70 -43 107z" />
    <glyph glyph-name="seven" unicode="7" horiz-adv-x="515" 
d="M154 8q-12 12 -12 29q0 6 4 18l244 538h-327q-15 0 -26 11t-11 26t11 26t26 11h388q16 0 27.5 -12t11.5 -28q0 -8 -4 -16l-264 -590q-4 -11 -15 -18t-23 -7q-18 0 -30 12z" />
    <glyph glyph-name="eight" unicode="8" horiz-adv-x="581" 
d="M97.5 278q45.5 46 113.5 66q-64 18 -106 58.5t-42 101.5q0 57 32.5 96t85 58t110.5 19t110.5 -19t85.5 -58t33 -96q0 -61 -42 -101.5t-107 -58.5q68 -20 113.5 -66t45.5 -109q0 -55 -32 -96t-86.5 -63t-120.5 -22q-67 0 -121.5 22t-86 63t-31.5 96q0 63 45.5 109z
M394.5 573q-41.5 30 -103.5 30q-63 0 -104 -30t-41 -80q0 -53 47 -79.5t98 -35.5q51 9 98 35.5t47 79.5q0 50 -41.5 80zM418 246q-28 28 -64 43t-63 18q-27 -3 -63.5 -18t-64.5 -43t-28 -68q0 -52 45.5 -84t110.5 -32q64 0 109.5 32t45.5 84q0 40 -28 68z" />
    <glyph glyph-name="nine" unicode="9" horiz-adv-x="591" 
d="M96 60.5q-4 8.5 -4 17.5q0 15 11 26t26 11q12 0 22 -7q23 -22 51.5 -33.5t66.5 -11.5q64 0 106.5 37.5t62 97t19.5 126.5q0 18 -1 27q-25 -40 -77 -72t-111 -32q-61 0 -111 24t-79 72t-29 117q0 58 28.5 108t81.5 80t123 30q132 0 195 -97.5t63 -247.5q0 -94 -29.5 -172
t-90.5 -125t-151 -47q-95 0 -162 59q-7 4 -11 12.5zM406 548q-41 56 -120 56q-48 0 -83 -21.5t-52.5 -54t-17.5 -65.5q0 -70 43 -107t111 -37q49 0 94.5 27t71.5 72q-6 74 -47 130z" />
    <glyph glyph-name="colon" unicode=":" horiz-adv-x="230" 
d="M76.5 474q16.5 16 38.5 16q23 0 39 -16t16 -39q0 -22 -16 -38.5t-39 -16.5q-22 0 -38.5 16.5t-16.5 38.5q0 23 16.5 39zM76.5 84q16.5 16 38.5 16q23 0 39 -16t16 -39q0 -22 -16 -38.5t-39 -16.5q-22 0 -38.5 16.5t-16.5 38.5q0 23 16.5 39z" />
    <glyph glyph-name="semicolon" unicode=";" horiz-adv-x="230" 
d="M76.5 396.5q-16.5 16.5 -16.5 38.5q0 23 16.5 39t38.5 16q23 0 39 -16t16 -39q0 -22 -16.5 -38.5t-38.5 -16.5t-38.5 16.5zM92 -123q-10 0 -16.5 6.5t-6.5 16.5q0 11 7 17q19 19 31.5 40t14.5 40q-6 -2 -14 -2q-21 0 -34.5 14.5t-13.5 36.5t15.5 38t37.5 16
q26 0 44.5 -20.5t18.5 -55.5q0 -40 -18.5 -77t-50.5 -64q-6 -6 -15 -6z" />
    <glyph glyph-name="less" unicode="&#x3c;" horiz-adv-x="499" 
d="M31 314.5q-6 9.5 -6 20.5t6 20t16 15l386 192q6 3 13 3q12 0 20 -8.5t8 -19.5q0 -17 -17 -26l-364 -177l365 -176q7 -3 11.5 -10t4.5 -15q0 -12 -8 -20t-20 -8q-5 0 -13 2l-386 192q-10 6 -16 15.5z" />
    <glyph glyph-name="equal" unicode="=" horiz-adv-x="499" 
d="M32.5 412q-7.5 8 -7.5 19t8 18.5t18 7.5h397q11 0 18.5 -7.5t7.5 -18.5t-7.5 -19t-18.5 -8h-397q-11 0 -18.5 8zM33 219q-8 8 -8 18q0 11 8 18.5t18 7.5h397q11 0 18.5 -7.5t7.5 -18.5q0 -10 -7.5 -18t-18.5 -8h-397q-10 0 -18 8z" />
    <glyph glyph-name="greater" unicode="&#x3e;" horiz-adv-x="499" 
d="M53 105q-12 0 -20 8t-8 20q0 8 4.5 15t11.5 10l364 176l-364 177q-16 9 -16 26q0 11 8 19.5t20 8.5q8 0 12 -3l386 -192q10 -5 16.5 -14.5t6.5 -20.5q0 -12 -6.5 -21t-16.5 -15l-386 -192q-6 -2 -12 -2z" />
    <glyph glyph-name="question" unicode="?" horiz-adv-x="462" 
d="M177.5 321q13.5 24 32 40.5t50.5 39.5q43 29 64 52t21 57q0 40 -30.5 66.5t-87.5 26.5q-45 0 -77.5 -15t-60.5 -44q-11 -9 -24 -9q-15 0 -26 10.5t-11 26.5q0 15 12 27q78 78 195 78q59 0 103.5 -20.5t68.5 -56t24 -78.5q0 -39 -15.5 -68.5t-38 -49t-58.5 -44.5
q-43 -30 -62.5 -50.5t-19.5 -49.5q0 -12 11 -26q2 -3 2 -10q0 -15 -10 -25.5t-25 -10.5q-9 0 -16.5 4.5t-12.5 12.5q-22 29 -22 61q0 31 13.5 55zM185.5 84q16.5 16 38.5 16q23 0 39 -16t16 -39q0 -22 -16 -38.5t-39 -16.5q-22 0 -38.5 16.5t-16.5 38.5q0 23 16.5 39z" />
    <glyph glyph-name="at" unicode="@" horiz-adv-x="783" 
d="M596 595.5q72 -42.5 111.5 -115t39.5 -159.5q0 -75 -25 -128.5t-64.5 -80.5t-83.5 -27q-40 0 -64.5 23.5t-26.5 57.5l-1 6q-27 -38 -69.5 -62.5t-88.5 -24.5q-69 0 -111 45t-42 118q0 67 33.5 125t88 92t113.5 34q46 0 79.5 -22t48.5 -56l8 40q2 11 11 18.5t21 7.5
q16 0 26.5 -12.5t6.5 -28.5l-49 -234q-2 -12 -2 -21q0 -25 13.5 -38.5t33.5 -13.5q23 0 48 18t42.5 59t17.5 105q0 81 -35.5 145.5t-99.5 101t-148 36.5q-94 0 -177 -50t-132.5 -133t-49.5 -175q0 -80 37 -144.5t102.5 -101.5t147.5 -37q90 0 174 49q5 3 9 3q7 0 11.5 -4.5
t4.5 -11.5q0 -9 -7 -14q-49 -30 -100.5 -42.5t-95.5 -12.5q-89 0 -161.5 41.5t-114 113.5t-41.5 159q0 105 55.5 196t147 144.5t194.5 53.5q92 0 164 -42.5zM522 369q-10 29 -36.5 51.5t-66.5 22.5q-48 0 -89 -27.5t-64.5 -71.5t-23.5 -92q0 -49 27.5 -80t74.5 -31t85 26
t64 64z" />
    <glyph glyph-name="A" unicode="A" horiz-adv-x="658" 
d="M630 39q0 -18 -12.5 -30.5t-29.5 -12.5q-13 0 -24 7.5t-16 19.5l-48 125h-343l-48 -125q-4 -12 -14.5 -19.5t-24.5 -7.5q-18 0 -30.5 12.5t-12.5 29.5q0 5 4 17l230 570q8 21 26.5 33.5t41.5 12.5t41 -12.5t26 -33.5l231 -570q3 -15 3 -16zM186 222h286l-143 371z" />
    <glyph glyph-name="B" unicode="B" horiz-adv-x="629" 
d="M89.5 11.5q-11.5 11.5 -11.5 32.5v579q0 21 11.5 32.5t32.5 11.5h253q86 0 136.5 -47t50.5 -123q0 -60 -34 -101.5t-83 -51.5q35 -5 65 -29t47.5 -60t17.5 -75q0 -81 -51.5 -130.5t-141.5 -49.5h-260q-21 0 -32.5 11.5zM361 378q55 0 85 30t30 77t-30.5 77.5t-84.5 30.5
h-200v-215h200zM365 74q58 0 91 31t33 84q0 49 -32.5 82t-91.5 33h-204v-230h204z" />
    <glyph glyph-name="C" unicode="C" horiz-adv-x="670" 
d="M219 31.5q-78 43.5 -123 122.5t-45 179t45 179t123 122.5t172 43.5q139 0 229 -97q10 -10 10 -27q0 -16 -11.5 -27.5t-27.5 -11.5q-19 0 -30 13q-32 36 -76 56t-94 20q-71 0 -129 -34.5t-91.5 -96.5t-33.5 -140t33.5 -139.5t91.5 -96.5t129 -35q50 0 94.5 20t75.5 56
q11 13 30 13q16 0 27.5 -11.5t11.5 -27.5q0 -17 -10 -27q-45 -47 -101 -72t-128 -25q-94 0 -172 43.5z" />
    <glyph glyph-name="D" unicode="D" horiz-adv-x="700" 
d="M89.5 11.5q-11.5 11.5 -11.5 32.5v579q0 21 11.5 32.5t32.5 11.5h184q101 0 179 -43.5t120.5 -120t42.5 -170.5q0 -95 -42.5 -170.5t-120.5 -119t-179 -43.5h-184q-21 0 -32.5 11.5zM306 74q79 0 137 34.5t88.5 93.5t30.5 131q0 73 -30 132t-88 93.5t-138 34.5h-145v-519
h145z" />
    <glyph glyph-name="E" unicode="E" horiz-adv-x="569" 
d="M89.5 11.5q-11.5 11.5 -11.5 32.5v579q0 21 11.5 32.5t32.5 11.5h360q15 0 26.5 -11t11.5 -26t-11.5 -26t-26.5 -11h-321v-215h314q15 0 26.5 -11t11.5 -26t-11.5 -26t-26.5 -11h-314v-230h321q15 0 26.5 -11t11.5 -26t-11.5 -26t-26.5 -11h-360q-21 0 -32.5 11.5z" />
    <glyph glyph-name="F" unicode="F" horiz-adv-x="550" 
d="M90 8q-12 12 -12 29v586q0 21 11.5 32.5t32.5 11.5h360q15 0 26.5 -11t11.5 -26t-11.5 -26t-26.5 -11h-321v-215h314q15 0 26.5 -11t11.5 -26t-11.5 -26t-26.5 -11h-314v-267q0 -16 -12 -28.5t-29 -12.5q-18 0 -30 12z" />
    <glyph glyph-name="G" unicode="G" horiz-adv-x="713" 
d="M644.5 331.5q11.5 -11.5 11.5 -33.5v-163q0 -18 -5 -31t-17 -24q-48 -44 -109 -68.5t-131 -24.5q-95 0 -173.5 43.5t-124 122.5t-45.5 180t45.5 179.5t124 122t173.5 43.5q138 0 230 -92q11 -9 11 -27q0 -16 -11 -27t-27 -11q-17 0 -28 11q-34 34 -79 53t-96 19
q-72 0 -131 -34.5t-92.5 -96.5t-33.5 -140t33.5 -140t92.5 -97t131 -35q55 0 102.5 21.5t76.5 50.5v136h-196q-15 0 -26 11t-11 26t11 26t26 11h235q21 0 32.5 -11.5z" />
    <glyph glyph-name="H" unicode="H" horiz-adv-x="712" 
d="M563 8q-12 12 -12 29v269h-390v-269q0 -16 -12 -28.5t-29 -12.5q-18 0 -30 12t-12 29v593q0 17 12 29t29 12t29.5 -12t12.5 -29v-250h390v250q0 17 12 29t30 12q17 0 29 -12t12 -29v-593q0 -17 -12 -29t-30 -12q-17 0 -29 12z" />
    <glyph glyph-name="I" unicode="I" horiz-adv-x="239" 
d="M90 8q-12 12 -12 29v593q0 17 12 29t30 12q17 0 29 -12t12 -29v-593q0 -16 -12 -28.5t-29 -12.5q-18 0 -30 12z" />
    <glyph glyph-name="J" unicode="J" horiz-adv-x="475" 
d="M19 73q0 16 11.5 27t27.5 11q11 0 22 -7q44 -42 100 -42q61 0 97.5 38.5t36.5 101.5v428q0 17 12 29t29 12t29.5 -12t12.5 -29v-429q0 -104 -59 -158.5t-153 -54.5q-91 0 -150 55q-16 11 -16 30z" />
    <glyph glyph-name="K" unicode="K" horiz-adv-x="601" 
d="M560 36q0 -17 -11 -28.5t-27 -11.5q-18 0 -30 12l-264 289l-67 -71v-189q0 -17 -12.5 -29t-29.5 -12t-29 12t-12 29v593q0 17 12 29t29 12t29.5 -12t12.5 -29v-309l306 337q10 13 29 13q16 0 28 -11t12 -27q0 -14 -11 -27l-242 -258l266 -286q11 -11 11 -26z" />
    <glyph glyph-name="L" unicode="L" horiz-adv-x="510" 
d="M89.5 11.5q-11.5 11.5 -11.5 32.5v586q0 17 12 29t30 12q17 0 29 -12t12 -29v-556h277q15 0 26.5 -11t11.5 -26t-11.5 -26t-26.5 -11h-316q-21 0 -32.5 11.5z" />
    <glyph glyph-name="M" unicode="M" horiz-adv-x="809" 
d="M660.5 8.5q-12.5 12.5 -12.5 28.5v518l-221 -542q-6 -17 -23 -17t-23 17l-220 542v-518q0 -16 -12 -28.5t-29 -12.5q-18 0 -30 12t-12 29v564q0 29 20.5 49.5t49.5 20.5q22 0 39.5 -12t25.5 -32l191 -471l192 471q8 20 25.5 32t39.5 12q29 0 49.5 -20.5t20.5 -49.5v-564
q0 -17 -12 -29t-30 -12q-16 0 -28.5 12.5z" />
    <glyph glyph-name="N" unicode="N" horiz-adv-x="708" 
d="M555 1.5q-11 5.5 -18 15.5l-376 521v-501q0 -16 -12 -28.5t-29 -12.5q-18 0 -30 12t-12 29v580q0 22 16 38t38 16q28 0 44 -22l371 -509v490q0 17 12.5 29t28.5 12q18 0 30 -12t12 -29v-583q0 -21 -15 -36t-36 -15q-13 0 -24 5.5z" />
    <glyph glyph-name="O" unicode="O" horiz-adv-x="765" 
d="M92.5 509.5q41.5 78.5 117 123.5t172.5 45t172 -45t117 -123.5t42 -176.5t-42 -176.5t-117 -123.5t-172 -45t-172.5 45t-117 123.5t-41.5 176.5t41.5 176.5zM596.5 472.5q-30.5 61.5 -86 96.5t-128.5 35q-74 0 -129.5 -35t-85.5 -96.5t-30 -139.5q0 -77 30 -139t86 -97
t129 -35t128.5 35t86 97t30.5 139q0 78 -30.5 139.5z" />
    <glyph glyph-name="P" unicode="P" horiz-adv-x="587" 
d="M90 8q-12 12 -12 29v586q0 21 11.5 32.5t32.5 11.5h224q65 0 112.5 -27t72 -73t24.5 -101t-25 -101t-72.5 -73t-111.5 -27h-185v-228q0 -16 -12 -28.5t-29 -12.5q-18 0 -30 12zM432 557.5q-37 35.5 -96 35.5h-175v-254h175q59 0 96 35.5t37 91.5t-37 91.5z" />
    <glyph glyph-name="Q" unicode="Q" horiz-adv-x="765" 
d="M661 44q10 -10 10 -25q0 -16 -11 -27t-27 -11q-17 0 -28 12l-42 45q-80 -50 -181 -50q-97 0 -172.5 45t-117 123.5t-41.5 176.5t41.5 176.5t117 123.5t172.5 45t172 -45t117 -123.5t42 -176.5q0 -73 -24 -136.5t-68 -109.5zM509 96l-71 77q-10 12 -10 25q0 16 11 27
t27 11q19 0 28 -12l72 -78q29 36 45 84t16 103q0 78 -30.5 139.5t-86 96.5t-128.5 35q-74 0 -129.5 -35t-85.5 -96.5t-30 -139.5q0 -77 30 -139t86 -97t129 -35q71 0 127 34z" />
    <glyph glyph-name="R" unicode="R" horiz-adv-x="608" 
d="M557 34q0 -14 -11.5 -26t-28.5 -12q-23 0 -35 17l-174 252h-147v-228q0 -16 -12 -28.5t-29 -12.5q-18 0 -30 12t-12 29v586q0 21 11.5 32.5t32.5 11.5h224q61 0 108.5 -24.5t74 -70.5t26.5 -106q0 -81 -45.5 -131.5t-113.5 -60.5l153 -214q8 -12 8 -26zM161 338h175
q59 0 96 36t37 92t-37 91.5t-96 35.5h-175v-255z" />
    <glyph glyph-name="S" unicode="S" horiz-adv-x="586" 
d="M49 100q0 17 11.5 29t28.5 12q16 0 25 -9q81 -70 183 -70q81 0 119 34.5t38 80.5q0 37 -22.5 60.5t-55.5 36.5t-91 29q-74 19 -118.5 37t-76 54.5t-31.5 97.5q0 54 30 96t83.5 65.5t121.5 23.5q62 0 111.5 -17t94.5 -52q17 -11 17 -32q0 -16 -11.5 -28t-27.5 -12
q-13 0 -24 9q-35 29 -77.5 43.5t-88.5 14.5q-64 0 -103.5 -29.5t-39.5 -76.5q0 -31 21.5 -51.5t52.5 -32t88 -26.5q74 -20 120.5 -39.5t79.5 -59t33 -104.5q0 -52 -25 -96.5t-80.5 -72t-140.5 -27.5q-71 0 -129 21.5t-101 59.5q-15 13 -15 31z" />
    <glyph glyph-name="T" unicode="T" horiz-adv-x="570" 
d="M255.5 8q-12.5 12 -12.5 29v556h-178q-15 0 -26 11t-11 26t11 26t26 11h440q15 0 26 -11t11 -26t-11 -26t-26 -11h-179v-556q0 -17 -12 -29t-29 -12t-29.5 12z" />
    <glyph glyph-name="U" unicode="U" horiz-adv-x="700" 
d="M78 630q0 17 12 29t30 12q17 0 29 -12t12 -29v-369q0 -93 49 -146t140 -53t140 53t49 146v369q0 17 12 29t30 12q17 0 29 -12t12 -29v-370q0 -127 -69.5 -199.5t-202.5 -72.5t-202.5 72.5t-69.5 198.5v371z" />
    <glyph glyph-name="V" unicode="V" horiz-adv-x="658" 
d="M287.5 9q-18.5 13 -26.5 33l-229 569q-4 7 -4 16q0 18 12.5 31t31.5 13q14 0 25.5 -7.5t15.5 -20.5l216 -552l216 552q5 13 16 20.5t25 7.5q18 0 31 -13t13 -31q0 -6 -4 -16l-229 -569q-8 -21 -26.5 -33.5t-41.5 -12.5t-41.5 13z" />
    <glyph glyph-name="W" unicode="W" horiz-adv-x="883" 
d="M598 8q-16 12 -20 31l-137 499l-136 -499q-5 -20 -20.5 -31.5t-35.5 -11.5t-35.5 11.5t-20.5 30.5l-164 576q-2 8 -2 13q0 18 13 31t31 13q15 0 26.5 -9.5t15.5 -23.5l141 -527l145 528q4 14 15.5 23t27.5 9q15 0 26.5 -9t15.5 -23l145 -528l140 527q4 14 15.5 23.5
t26.5 9.5q19 0 31.5 -13t12.5 -31q0 -5 -2 -13l-164 -576q-4 -19 -19.5 -30.5t-35.5 -11.5t-36 12z" />
    <glyph glyph-name="X" unicode="X" horiz-adv-x="652" 
d="M622 37q0 -17 -11.5 -29t-29.5 -12q-21 0 -31 13l-224 272l-224 -272q-10 -13 -31 -13q-18 0 -29.5 12t-11.5 29q0 11 10 25l236 281l-221 261q-9 13 -9 26q0 16 11 28.5t28 12.5q21 0 32 -14l209 -254l209 254q11 14 31 14q17 0 28.5 -12.5t11.5 -28.5q0 -14 -9 -25
l-221 -262l236 -281q10 -14 10 -25z" />
    <glyph glyph-name="Y" unicode="Y" horiz-adv-x="626" 
d="M578 609l-223 -327v-245q0 -17 -12.5 -29t-29.5 -12t-29 12t-12 29v245l-224 326q-7 8 -7 23q0 17 12 28.5t28 11.5q23 0 34 -18l198 -297l197 297q13 18 34 18q17 0 29 -12t12 -28q0 -11 -7 -22z" />
    <glyph glyph-name="Z" unicode="Z" horiz-adv-x="585" 
d="M57 14q-14 14 -14 34q0 15 10 28l370 517h-343q-15 0 -26 11t-11 26t11 26t26 11h406q20 0 34 -14t14 -34q0 -15 -10 -28l-370 -517h350q15 0 26 -11t11 -26t-11 -26t-26 -11h-413q-20 0 -34 14z" />
    <glyph glyph-name="bracketleft" unicode="[" horiz-adv-x="243" 
d="M50 -180.5q-10 9.5 -10 23.5v801q0 15 10 24.5t24 9.5h130q11 0 19.5 -8t8.5 -20q0 -11 -8.5 -19t-19.5 -8h-106v-758h106q11 0 19.5 -8t8.5 -19q0 -12 -8 -20t-19 -8h-131q-14 0 -24 9.5z" />
    <glyph glyph-name="backslash" unicode="\" horiz-adv-x="296" 
d="M242 -18.5q-7 5.5 -10 13.5l-221 658q-2 6 -2 10q0 11 8.5 19.5t19.5 8.5q10 0 17 -5.5t10 -13.5l221 -658q2 -6 2 -10q0 -11 -8.5 -19.5t-19.5 -8.5q-10 0 -17 5.5z" />
    <glyph glyph-name="bracketright" unicode="]" horiz-adv-x="243" 
d="M19 -182q-8 8 -8 20q0 11 8.5 19t19.5 8h106v758h-106q-11 0 -19.5 8t-8.5 19q0 12 8.5 20t19.5 8h131q14 0 23.5 -9.5t9.5 -24.5v-801q0 -14 -9.5 -23.5t-23.5 -9.5h-132q-11 0 -19 8z" />
    <glyph glyph-name="asciicircum" unicode="^" horiz-adv-x="432" 
d="M346 344l-130 268l-130 -268q-3 -7 -10 -11t-15 -4q-11 0 -19.5 8t-8.5 19q0 5 4 13l141 278q4 11 14.5 17.5t23.5 6.5t23.5 -6.5t15.5 -17.5l140 -278q3 -6 3 -13q0 -11 -8 -19t-19 -8q-18 0 -25 15z" />
    <glyph glyph-name="underscore" unicode="_" horiz-adv-x="564" 
d="M1 -87q-8 8 -8 19q0 12 8 20t19 8h524q11 0 19 -8t8 -20q0 -11 -8 -19t-19 -8h-524q-11 0 -19 8z" />
    <glyph glyph-name="grave" unicode="`" horiz-adv-x="226" 
d="M47 660q-9 7 -9 19q0 11 7 18t18 7t18 -7l114 -111q7 -5 7 -14q0 -8 -6 -14t-14 -6q-9 0 -14 5z" />
    <glyph glyph-name="a" unicode="a" horiz-adv-x="527" 
d="M400 455q52 -40 52 -123v-299q0 -15 -11 -26t-27 -11q-15 0 -26 11t-11 26v22q-28 -33 -69 -50t-91 -17q-43 0 -81.5 18.5t-63 55t-24.5 86.5q0 51 24.5 87t63 54t81.5 18q103 0 160 -66v87q0 48 -34 75t-88 27q-37 0 -67.5 -11.5t-58.5 -36.5q-10 -6 -20 -6q-13 0 -22 9
t-9 22q0 7 4 14t9 11q72 63 174 63q83 0 135 -40zM320.5 57.5q35.5 15.5 56.5 44.5v91q-21 29 -56.5 44.5t-76.5 15.5q-52 0 -85.5 -29.5t-33.5 -76.5q0 -46 33.5 -75.5t85.5 -29.5q41 0 76.5 15.5z" />
    <glyph glyph-name="b" unicode="b" horiz-adv-x="575" 
d="M424.5 463.5q48.5 -31.5 76 -89t27.5 -133.5q0 -77 -27.5 -134.5t-76 -88t-111.5 -30.5q-49 0 -91.5 23t-71.5 61v-39q0 -15 -11 -26t-26 -11q-16 0 -27 11t-11 26v601q0 15 11 26t27 11q15 0 26 -11t11 -26v-225q29 41 71.5 63.5t91.5 22.5q63 0 111.5 -31.5zM408 107
q42 52 42 134t-42 134.5t-114 52.5q-43 0 -83.5 -22.5t-60.5 -55.5v-219q20 -32 60.5 -54t83.5 -22q72 0 114 52z" />
    <glyph glyph-name="c" unicode="c" horiz-adv-x="495" 
d="M77.5 371q30.5 58 85 91t125.5 33q50 0 87.5 -15.5t67.5 -44.5q11 -11 11 -25t-10 -24t-24 -10q-13 0 -22 9q-43 43 -106 43q-76 0 -121.5 -52t-45.5 -134t45.5 -134.5t121.5 -52.5q63 0 105 43q9 9 23 9t24 -10t10 -24q0 -7 -3 -14t-8 -11q-30 -29 -67.5 -44.5
t-87.5 -15.5q-71 0 -125.5 33t-85 91t-30.5 130q0 71 30.5 129z" />
    <glyph glyph-name="d" unicode="d" horiz-adv-x="575" 
d="M489 660q11 -11 11 -26v-601q0 -15 -11 -26t-27 -11q-15 0 -26 11t-11 26v39q-28 -38 -71 -61t-92 -23q-63 0 -111.5 30.5t-76 88t-27.5 134.5q0 76 27 133.5t76 89t112 31.5q48 0 90.5 -22.5t72.5 -63.5v225q0 15 11 26t26 11q16 0 27 -11zM364 77q40 22 61 54v219
q-21 33 -61.5 55.5t-83.5 22.5q-71 0 -113 -52.5t-42 -134.5t42 -134t113 -52q44 0 84 22z" />
    <glyph glyph-name="e" unicode="e" horiz-adv-x="563" 
d="M78 369q31 58 85 92t122 34q70 0 123 -33t81 -88t28 -119q0 -18 -11.5 -28t-32.5 -10h-347q5 -71 52 -119t122 -48q72 0 130 46q7 4 17 4q13 0 22 -8.5t9 -21.5q0 -15 -13 -25q-74 -57 -172 -57q-71 0 -127 32t-87.5 90t-31.5 132q0 69 31 127zM200 409
q-35 -24 -53.5 -61t-20.5 -76h317q-1 39 -18.5 76t-53 61t-87.5 24q-49 0 -84 -24z" />
    <glyph glyph-name="f" unicode="f" horiz-adv-x="283" 
d="M299.5 660q6.5 -8 6.5 -19q0 -13 -8 -21.5t-22 -8.5q-5 0 -13.5 2t-15.5 2q-37 0 -56.5 -24.5t-19.5 -70.5v-37h69q14 0 23.5 -9.5t9.5 -23.5q0 -13 -9.5 -23t-23.5 -10h-69v-384q0 -15 -11 -26t-26 -11q-16 0 -27 11t-11 26v384h-51q-14 0 -24 10t-10 23t10 23t24 10h51
v37q0 74 38 115.5t102 41.5q25 0 47 -6q10 -3 16.5 -11z" />
    <glyph glyph-name="g" unicode="g" horiz-adv-x="574" 
d="M488 476q11 -11 11 -26v-436q0 -111 -65 -160.5t-165 -49.5q-56 0 -96.5 12t-78.5 43q-13 11 -13 26q0 13 10 23t23 10q10 0 19 -7q28 -24 60.5 -34.5t75.5 -10.5q67 0 111 35.5t44 109.5v68q-28 -38 -70.5 -61.5t-91.5 -23.5q-63 0 -111.5 30t-76 86.5t-27.5 133.5
q0 76 27 133t76 87.5t112 30.5q48 0 90 -22.5t72 -63.5v41q0 15 11 26t27 11q15 0 26 -11zM363.5 83q40.5 23 60.5 56v211q-20 33 -60 55.5t-84 22.5q-72 0 -113.5 -51t-41.5 -133q0 -81 42 -132.5t113 -51.5q43 0 83.5 23z" />
    <glyph glyph-name="h" unicode="h" horiz-adv-x="552" 
d="M413 7q-11 11 -11 26v285q0 60 -28 85t-81 25q-41 0 -80.5 -22t-62.5 -53v-320q0 -15 -11 -26t-26 -11q-16 0 -27 11t-11 26v601q0 15 11 26t27 11q15 0 26 -11t11 -26v-221q28 33 75 57.5t98 24.5q154 0 154 -154v-308q0 -15 -11 -26t-27 -11q-15 0 -26 11z" />
    <glyph glyph-name="i" unicode="i" horiz-adv-x="225" 
d="M77 595.5q-15 14.5 -15 35.5t15 36t35 15q21 0 36 -15t15 -36t-15 -35.5t-36 -14.5q-20 0 -35 14.5zM86 7q-11 11 -11 26v417q0 15 11 26t27 11q15 0 26 -11t11 -26v-417q0 -15 -11 -26t-27 -11q-15 0 -26 11z" />
    <glyph glyph-name="j" unicode="j" horiz-adv-x="225" 
d="M77 595.5q-15 14.5 -15 35.5t15 36t35 15q21 0 36 -15t15 -36t-15 -35.5t-36 -14.5q-20 0 -35 14.5zM-16 -194q-12 1 -21 10t-9 22t8.5 23t20.5 10q2 0 6.5 -1t10.5 -1q75 0 75 84v497q0 15 11 26t27 11q15 0 26 -11t11 -26v-497q0 -71 -37 -110t-105 -39q-8 0 -24 2z
" />
    <glyph glyph-name="k" unicode="k" horiz-adv-x="514" 
d="M475 34q0 -16 -10.5 -27t-26.5 -11q-18 0 -29 12l-177 208l-82 -76v-107q0 -15 -11 -26t-27 -11q-15 0 -26 11t-11 26v601q0 15 11 26t27 11q15 0 26 -11t11 -26v-409l261 253q9 9 24 9q14 0 24 -10.5t10 -24.5t-10 -24l-173 -166l180 -203q9 -10 9 -25z" />
    <glyph glyph-name="l" unicode="l" horiz-adv-x="225" 
d="M86 7q-11 11 -11 26v601q0 15 11 26t27 11q15 0 26 -11t11 -26v-601q0 -15 -11 -26t-26 -11q-16 0 -27 11z" />
    <glyph glyph-name="m" unicode="m" horiz-adv-x="808" 
d="M698.5 458q34.5 -37 34.5 -109v-316q0 -15 -11.5 -26t-26.5 -11t-26 11t-11 26v295q0 47 -22 73.5t-67 26.5q-36 0 -72 -22t-56 -52v-321q0 -15 -11 -26t-26 -11t-26.5 11t-11.5 26v295q0 100 -89 100q-35 0 -70.5 -22t-56.5 -53v-320q0 -15 -11 -26t-26 -11
q-16 0 -27 11t-11 26v417q0 15 11 26t26 11q16 0 27 -11t11 -26v-37q17 28 62 55t94 27q53 0 86 -25t44 -65q22 36 67 63t95 27q66 0 100.5 -37z" />
    <glyph glyph-name="n" unicode="n" 
d="M476 339v-306q0 -15 -11 -26t-27 -11q-15 0 -26 11t-11 26v283q0 61 -28 86.5t-80 25.5q-42 0 -81.5 -22t-61.5 -53v-320q0 -15 -11 -26t-26 -11q-16 0 -27 11t-11 26v417q0 15 11 26t26 11q16 0 27 -11t11 -26v-38q28 34 74 58.5t98 24.5q154 0 154 -156z" />
    <glyph glyph-name="o" unicode="o" horiz-adv-x="572" 
d="M160 22q-54 34 -83.5 92t-29.5 128t29.5 128t83.5 91.5t126 33.5t126 -33.5t83.5 -91.5t29.5 -128t-29.5 -128t-83.5 -92t-126 -34t-126 34zM372 80.5q36 25.5 55 68.5t19 93t-19 92.5t-55 68t-86 25.5t-86.5 -25.5t-55.5 -68t-19 -92.5t19 -93t55.5 -68.5t86.5 -25.5
t86 25.5z" />
    <glyph glyph-name="p" unicode="p" horiz-adv-x="574" 
d="M425 464.5q49 -30.5 76 -88t27 -134.5t-27 -134.5t-76 -88.5t-112 -31q-49 0 -91 22.5t-72 63.5v-225q0 -15 -11 -26t-26 -11q-16 0 -27 11t-11 26v601q0 15 11 26t27 11q15 0 26 -11t11 -26v-39q27 38 70 61t93 23q63 0 112 -30.5zM407 107.5q42 52.5 42 134.5t-42 134
t-113 52q-43 0 -83.5 -22.5t-60.5 -54.5v-218q20 -33 60.5 -55.5t83.5 -22.5q71 0 113 52.5z" />
    <glyph glyph-name="q" unicode="q" horiz-adv-x="574" 
d="M488 476q11 -11 11 -26v-601q0 -15 -11 -26t-27 -11q-15 0 -26 11t-11 26v225q-29 -41 -71 -63.5t-91 -22.5q-63 0 -112 31t-76 88.5t-27 134.5t27 134.5t76 88t112 30.5q49 0 91.5 -22.5t70.5 -60.5v38q0 15 11 26t26 11q16 0 27 -11zM364 77.5q40 22.5 60 55.5v218
q-20 33 -60 55t-84 22q-71 0 -113 -52t-42 -134t42 -134.5t113 -52.5q44 0 84 22.5z" />
    <glyph glyph-name="r" unicode="r" horiz-adv-x="330" 
d="M307 480.5q9 -10.5 9 -25.5q0 -14 -11 -24.5t-30 -12.5q-34 -2 -71.5 -24.5t-53.5 -51.5v-309q0 -15 -11 -26t-26 -11q-16 0 -27 11t-11 26v417q0 15 11 26t26 11q16 0 27 -11t11 -26v-45q22 30 50.5 52t57.5 29q17 5 24 5q16 0 25 -10.5z" />
    <glyph glyph-name="s" unicode="s" horiz-adv-x="465" 
d="M41 72q0 14 10 23.5t23 9.5q11 0 20 -6q28 -23 63 -36.5t74 -13.5q54 0 84 22t30 58t-31 53.5t-93 32.5q-56 13 -90.5 26t-59.5 41t-25 74q0 38 21.5 69.5t62 50.5t96.5 19q93 0 160 -53q13 -11 13 -25q0 -13 -9.5 -22.5t-22.5 -9.5q-9 0 -18 7q-23 20 -54.5 31t-68.5 11
q-49 0 -78 -20t-29 -53q0 -32 29.5 -47.5t88.5 -29.5q56 -13 92.5 -27t62.5 -43.5t26 -79.5q0 -64 -50 -105t-140 -41q-103 0 -173 57q-14 9 -14 27z" />
    <glyph glyph-name="t" unicode="t" horiz-adv-x="294" 
d="M275 55q9 -9 9 -23q0 -20 -19 -28q-27 -16 -68 -16q-53 0 -80 29t-27 84v316h-51q-13 0 -23 10t-10 23q0 14 10 23.5t23 9.5h51v99q0 15 11 26t27 11q15 0 26 -11t11 -26v-99h69q14 0 24 -10t10 -23t-10 -23t-24 -10h-69v-300q0 -28 12.5 -45t36.5 -17q12 0 23 4.5
t15 4.5q14 0 23 -9z" />
    <glyph glyph-name="u" unicode="u" 
d="M465 476q11 -11 11 -26v-417q0 -15 -11 -26t-26 -11q-16 0 -27 11t-11 26v34q-31 -34 -76 -56.5t-96 -22.5q-154 0 -154 154v308q0 15 11 26t27 11q15 0 26 -11t11 -26v-285q0 -60 27.5 -85t80.5 -25q42 0 81.5 21t61.5 52v322q0 15 11 26t26 11q16 0 27 -11z" />
    <glyph glyph-name="v" unicode="v" horiz-adv-x="490" 
d="M459 476q11 -11 11 -27q0 -3 -3 -15l-168 -402q-7 -16 -21.5 -26t-31.5 -10q-19 0 -33.5 9.5t-21.5 26.5l-168 402q-1 3 -2 6.5t-1 8.5q0 16 10.5 27t26.5 11q12 0 21.5 -6.5t13.5 -16.5l153 -378l152 378q4 10 14 16.5t21 6.5q16 0 27 -11z" />
    <glyph glyph-name="w" unicode="w" horiz-adv-x="734" 
d="M500 5.5q-13 9.5 -17 25.5l-116 357l-116 -357q-4 -16 -17 -25.5t-30 -9.5t-30.5 9.5t-17.5 25.5l-130 407q-2 8 -2 12q0 16 11 26.5t26 10.5q13 0 23 -7.5t13 -18.5l111 -363l118 360q4 13 15.5 21t25.5 8t25.5 -8t15.5 -21l118 -360l111 363q3 11 13 18.5t23 7.5
q15 0 26 -11t11 -26q0 -7 -2 -13l-130 -406q-4 -16 -17.5 -25.5t-30.5 -9.5t-30 9.5z" />
    <glyph glyph-name="x" unicode="x" horiz-adv-x="486" 
d="M456 31q0 -13 -9.5 -24t-25.5 -11t-27 12l-151 191l-150 -189q-11 -14 -28 -14q-16 0 -25.5 11t-9.5 24t8 21l162 198l-151 179q-9 11 -9 22q0 14 10.5 25t25.5 11q16 0 25 -12l142 -174l142 174q9 12 26 12q15 0 25 -10.5t10 -25.5q0 -12 -8 -22l-151 -179l161 -198
q8 -8 8 -21z" />
    <glyph glyph-name="y" unicode="y" horiz-adv-x="490" 
d="M59.5 -137.5q10.5 9.5 25.5 9.5l16 -1q26 0 43 11t29 40l32 73l-182 440q-3 8 -3 14q0 16 10.5 27t26.5 11q12 0 21.5 -6.5t13.5 -16.5l153 -377l152 377q4 10 14 16.5t21 6.5q16 0 27 -11t11 -27q0 -7 -3 -15l-222 -532q-21 -51 -56.5 -74t-85.5 -24q-14 0 -22 2
q-14 1 -23 10.5t-9 22.5q0 14 10.5 23.5z" />
    <glyph glyph-name="z" unicode="z" horiz-adv-x="472" 
d="M59 11.5q-12 11.5 -12 27.5q0 14 8 24l263 354h-238q-13 0 -23 10t-10 23t10 23t23 10h301q16 0 27.5 -11.5t11.5 -27.5q0 -11 -8 -23l-264 -356h243q14 0 23.5 -9.5t9.5 -22.5q0 -14 -9.5 -23.5t-23.5 -9.5h-304q-16 0 -28 11.5z" />
    <glyph glyph-name="braceleft" unicode="{" horiz-adv-x="260" 
d="M121 -173.5q-29 16.5 -46.5 47.5t-17.5 70v206q0 24 -9.5 41.5t-27.5 24.5q-9 4 -14.5 11.5t-5.5 16.5t5.5 16.5t14.5 11.5q18 7 27.5 24.5t9.5 41.5v205q0 39 17.5 70t46.5 48t61 17h41q11 0 19 -8t8 -20q0 -11 -8 -19t-19 -8h-41q-27 0 -46.5 -22.5t-19.5 -57.5v-211
q0 -68 -46 -88q46 -20 46 -88v-211q0 -34 19.5 -57t46.5 -23h41q11 0 19 -8t8 -19q0 -12 -8 -20t-19 -8h-41q-32 0 -61 16.5z" />
    <glyph glyph-name="bar" unicode="|" horiz-adv-x="211" 
d="M86 -16q-8 8 -8 19v661q0 11 8 19t19 8q12 0 20 -8t8 -19v-661q0 -11 -8 -19t-20 -8q-11 0 -19 8z" />
    <glyph glyph-name="braceright" unicode="}" horiz-adv-x="260" 
d="M38 -190q-11 0 -19 8t-8 20q0 11 8 19t19 8h40q27 0 46.5 23t19.5 57v211q0 68 46 88q-46 20 -46 88v211q0 35 -19.5 57.5t-46.5 22.5h-40q-11 0 -19 8t-8 19q0 12 8 20t19 8h40q32 0 61 -17t46.5 -47.5t17.5 -70.5v-205q0 -24 9.5 -42t28.5 -24q19 -9 19 -28t-19 -28
q-19 -6 -28.5 -24t-9.5 -42v-206q0 -40 -17.5 -70.5t-46.5 -47t-61 -16.5h-40z" />
    <glyph glyph-name="asciitilde" unicode="~" horiz-adv-x="503" 
d="M466.5 658q8.5 -10 6.5 -21q-11 -99 -42 -156.5t-94 -57.5q-32 0 -53 16t-32.5 38t-24.5 59q-15 40 -27 58.5t-35 18.5q-32 0 -51 -42.5t-29 -124.5q-1 -11 -9 -18t-19 -7q-12 0 -20.5 9.5t-7.5 22.5q12 98 43 155.5t93 57.5q33 0 54 -16t32.5 -38.5t24.5 -58.5
q13 -40 25.5 -59t35.5 -19q33 0 52 43t28 125q2 11 10 18t18 7q13 0 21.5 -10z" />
    <glyph glyph-name="uni00A0" unicode="&#xa0;" horiz-adv-x="258" 
 />
    <glyph glyph-name="exclamdown" unicode="&#xa1;" horiz-adv-x="230" 
d="M153.5 476.5q16.5 -16.5 16.5 -38.5t-16 -38.5t-39 -16.5q-22 0 -38.5 16.5t-16.5 38.5t16.5 38.5t38.5 16.5t38.5 -16.5zM92 291q9 9 23 9t23 -9t10 -22l13 -411q1 -18 -13 -32t-33 -14t-32.5 13.5t-12.5 32.5l13 411q0 13 9 22z" />
    <glyph glyph-name="cent" unicode="&#xa2;" horiz-adv-x="495" 
d="M444 97q10 -10 10 -24q0 -7 -3 -14t-8 -11q-27 -26 -58.5 -41t-73.5 -18v-64q0 -12 -8.5 -20.5t-20.5 -8.5q-13 0 -21.5 8.5t-8.5 20.5v65q-61 8 -107.5 43t-72 89t-25.5 120q0 65 25.5 119t72 89t107.5 43v47q0 12 8.5 20.5t21.5 8.5q12 0 20.5 -8.5t8.5 -20.5v-46
q42 -3 73.5 -18t58.5 -41q11 -11 11 -25t-10 -24t-24 -10q-13 0 -22 9q-37 38 -87 42v-371q50 5 86 42q9 9 23 9t24 -10zM159 122q34 -50 93 -63v365q-59 -13 -93 -62.5t-34 -119.5t34 -120z" />
    <glyph glyph-name="sterling" unicode="&#xa3;" horiz-adv-x="518" 
d="M490 74q11 -11 11 -27q0 -10 -5.5 -18.5t-14.5 -13.5q-42 -28 -108 -28q-31 0 -52 6t-46 18q-24 11 -40.5 16.5t-40.5 5.5q-40 0 -98 -35q-6 -4 -14 -4q-14 0 -24.5 10.5t-10.5 24.5q0 20 18 31q114 68 114 148q0 30 -15 60h-122q-11 0 -19 8t-8 19t8 19t19 8h83l-7 8
q-35 41 -52.5 73t-17.5 77q0 54 30.5 99t82 71.5t111.5 26.5q56 0 102 -20.5t77 -58.5q9 -10 9 -25q0 -16 -11 -27t-26 -11q-19 0 -30 14q-19 26 -48.5 42t-64.5 16q-59 0 -101 -35t-42 -93q0 -39 15 -66.5t44 -62.5q24 -31 22 -28h127q11 0 19 -8t8 -19t-8 -19t-19 -8h-98
q6 -19 6 -43q0 -78 -76 -132q25 9 52 9q22 0 39 -5.5t40 -16.5q20 -9 35 -14t34 -5q37 0 70 20q5 4 17 4q15 0 26 -11z" />
    <glyph glyph-name="currency" unicode="&#xa4;" horiz-adv-x="598" 
d="M551 127q10 -12 10 -23q0 -13 -9.5 -22.5t-23.5 -9.5t-23 9l-58 58q-62 -46 -148 -46t-148 46l-58 -58q-9 -9 -23 -9t-23.5 9.5t-9.5 22.5t9 23l60 59q-46 63 -46 147q0 85 46 148l-60 60q-9 9 -9 22q0 14 9.5 23.5t23.5 9.5t22 -10l60 -60q62 46 147 46q84 0 147 -45
l59 59q11 9 23 9q13 0 23 -9.5t10 -22.5t-10 -23l-59 -59q46 -63 46 -148t-46 -148zM386.5 184.5q36.5 23.5 55.5 63t19 85.5t-19 84.5t-55.5 62t-87.5 23.5q-50 0 -87 -23.5t-56 -62.5t-19 -84q0 -46 19 -85.5t56 -63t87 -23.5q51 0 87.5 23.5z" />
    <glyph glyph-name="yen" unicode="&#xa5;" horiz-adv-x="626" 
d="M573 659q12 -12 12 -28q0 -11 -7 -22l-189 -275h194q11 0 18.5 -7.5t7.5 -18.5q0 -10 -7.5 -18t-18.5 -8h-228v-107h228q11 0 18.5 -8t7.5 -19q0 -10 -7.5 -18t-18.5 -8h-228v-85q0 -17 -12.5 -29t-29.5 -12t-29 12t-12 29v85h-228q-11 0 -18.5 8t-7.5 19t8 18.5t18 7.5
h228v107h-228q-10 0 -18 8t-8 18q0 11 8 18.5t18 7.5h193l-188 274q-8 10 -8 23q0 17 12 28.5t28 11.5q23 0 34 -18l198 -296l197 296q12 18 34 18q17 0 29 -12z" />
    <glyph glyph-name="brokenbar" unicode="&#xa6;" horiz-adv-x="211" 
d="M86 375q-8 8 -8 19v270q0 11 8 19t19 8q12 0 20 -8t8 -19v-270q0 -11 -8 -19t-20 -8q-11 0 -19 8zM86 -16q-8 8 -8 19v270q0 11 8 19t19 8q12 0 20 -8t8 -19v-270q0 -11 -8 -19t-20 -8q-11 0 -19 8z" />
    <glyph glyph-name="section" unicode="&#xa7;" horiz-adv-x="468" 
d="M394 141q24 -29 24 -75q0 -69 -52 -108t-138 -39q-58 0 -99.5 16t-75.5 45q-11 11 -11 23q0 13 9 22t21 9t19 -7q60 -53 137 -53q53 0 85 23t32 64q0 26 -17 42.5t-42.5 26t-68.5 20.5q-56 15 -89.5 28t-57.5 40t-24 72q0 50 32.5 82.5t82.5 45.5q-56 18 -85.5 47
t-29.5 76q0 37 21.5 68t62.5 49.5t96 18.5q96 0 161 -54q11 -9 11 -23q0 -11 -8.5 -19.5t-20.5 -8.5q-9 0 -17 5q-25 22 -57.5 33t-66.5 11q-48 0 -78.5 -22t-30.5 -58q0 -23 16 -37.5t39.5 -22.5t65.5 -18q56 -13 91.5 -26.5t61 -43t25.5 -78.5q0 -42 -23.5 -75t-68.5 -53
q44 -17 68 -46zM144 357q-25 -24 -25 -59q0 -27 19 -44t44.5 -25.5t78.5 -21.5q42 18 62.5 41t20.5 57q0 39 -30.5 59t-82.5 33q-62 -16 -87 -40z" />
    <glyph glyph-name="dieresis" unicode="&#xa8;" horiz-adv-x="413" 
d="M70.5 580q-13.5 14 -13.5 33t13.5 32.5t32.5 13.5t32.5 -13.5t13.5 -32.5q0 -20 -13.5 -33.5t-32.5 -13.5t-32.5 14zM276.5 580q-13.5 14 -13.5 33t14 32.5t33 13.5t32.5 -13.5t13.5 -32.5t-13.5 -33t-32.5 -14q-20 0 -33.5 14z" />
    <glyph glyph-name="copyright" unicode="&#xa9;" horiz-adv-x="778" 
d="M90.5 507q46.5 79 125.5 125.5t173 46.5t173 -46.5t125.5 -125.5t46.5 -173t-46.5 -173t-125.5 -125.5t-173 -46.5q-93 0 -172.5 46.5t-126 126t-46.5 172.5q0 94 46.5 173zM660.5 491q-42.5 72 -114.5 114.5t-157 42.5t-157 -42.5t-114.5 -114.5t-42.5 -157t42.5 -157.5
t114.5 -115t157 -42.5t157 42.5t114.5 115t42.5 157.5t-42.5 157zM211 443.5q28 48.5 75.5 76t104.5 27.5q85 0 139 -57q4 -4 4 -11q0 -8 -5 -13.5t-12 -5.5q-8 0 -13 7q-21 22 -51.5 34.5t-61.5 12.5q-45 0 -84.5 -22.5t-63 -63.5t-23.5 -93t23.5 -93.5t63 -65t84.5 -23.5
q32 0 62 13t51 35q5 7 13 7q7 0 12 -5.5t5 -13.5q0 -7 -4 -11q-55 -58 -139 -58q-57 0 -104.5 28.5t-75.5 77.5t-28 109t28 108.5z" />
    <glyph glyph-name="ordfeminine" unicode="&#xaa;" horiz-adv-x="378" 
d="M281 621q36 -27 36 -84v-186q0 -12 -8 -20.5t-20 -8.5t-20.5 9t-8.5 21v10q-39 -44 -107 -44q-44 0 -78 28t-34 76q0 49 33.5 76t78.5 27q67 0 107 -42v55q0 30 -23 47.5t-56 17.5q-46 0 -85 -32q-4 -5 -13 -5q-10 0 -16.5 6.5t-6.5 15.5q0 11 9 18q53 42 119 42
q57 0 93 -27zM224 366q23 10 36 28v56q-13 18 -36 28t-49 10q-33 0 -54.5 -18.5t-21.5 -47.5q0 -30 21.5 -48t54.5 -18q26 0 49 10z" />
    <glyph glyph-name="guillemotleft" unicode="&#xab;" horiz-adv-x="439" 
d="M185 68l-127 143q-14 17 -14 32q0 16 14 32l127 140q8 9 21 9q12 0 20 -8.5t8 -19.5q0 -9 -7 -18l-122 -135l123 -137q7 -9 7 -19q0 -11 -8.5 -19.5t-20.5 -8.5t-21 9zM329 68l-127 143q-14 17 -14 32q0 16 14 32l127 140q8 9 21 9q12 0 20 -8.5t8 -19.5q0 -9 -7 -18
l-122 -135l123 -137q7 -9 7 -19q0 -11 -8.5 -19.5t-20.5 -8.5t-21 9z" />
    <glyph glyph-name="logicalnot" unicode="&#xac;" horiz-adv-x="504" 
d="M461.5 215q-8.5 -8 -19.5 -8t-19 8t-8 19v170h-364q-11 0 -18.5 8t-7.5 19t8 18.5t18 7.5h374q22 0 33.5 -11.5t11.5 -32.5v-179q0 -11 -8.5 -19z" />
    <glyph glyph-name="uni00AD" unicode="&#xad;" horiz-adv-x="300" 
d="M36 219q-10 10 -10 23q0 14 10 23.5t23 9.5h182q14 0 23.5 -9.5t9.5 -23.5q0 -13 -9.5 -23t-23.5 -10h-182q-13 0 -23 10z" />
    <glyph glyph-name="registered" unicode="&#xae;" horiz-adv-x="494" 
d="M63.5 571.5q28.5 48.5 77 77t106.5 28.5t106.5 -28.5t77 -77t28.5 -106.5t-28.5 -106.5t-77 -77t-106.5 -28.5t-106.5 28.5t-77 77t-28.5 106.5t28.5 106.5zM405.5 557q-24.5 42 -66.5 66.5t-92 24.5t-92.5 -24.5t-67 -66.5t-24.5 -92t24.5 -92t67 -67t92.5 -25t92 25
t66.5 67t24.5 92t-24.5 92zM249 439h-51v-85q0 -6 -4.5 -10.5t-10.5 -4.5q-7 0 -12 4.5t-5 10.5v212q0 8 6 14t14 6h79q32 0 54.5 -20.5t22.5 -53.5q0 -32 -19 -50t-37 -21l52 -77q2 -3 2 -8q0 -7 -5 -12.5t-12 -5.5q-8 0 -13 8zM295.5 544.5q-13.5 13.5 -30.5 13.5h-67v-90
h67q16 0 30 13t14 31q0 19 -13.5 32.5z" />
    <glyph glyph-name="macron" unicode="&#xaf;" horiz-adv-x="363" 
d="M31 579q-7 7 -7 17t7 17t17 7h267q10 0 17 -7t7 -17t-7 -17t-17 -7h-267q-10 0 -17 7z" />
    <glyph glyph-name="degree" unicode="&#xb0;" horiz-adv-x="290" 
d="M58.5 468.5q-35.5 35.5 -35.5 86.5q0 50 35.5 86t85.5 36q51 0 87 -36t36 -86q0 -51 -36 -86.5t-87 -35.5q-50 0 -85.5 35.5zM93 607q-21 -22 -21 -52q0 -31 21 -52.5t51 -21.5q31 0 53 21.5t22 52.5q0 30 -22 52t-53 22q-30 0 -51 -22z" />
    <glyph glyph-name="plusminus" unicode="&#xb1;" horiz-adv-x="499" 
d="M278 134q0 -11 -8.5 -19.5t-20.5 -8.5q-11 0 -19.5 8.5t-8.5 19.5v190h-170q-10 0 -18 8t-8 18q0 11 8 18.5t18 7.5h170v183q0 11 8.5 19.5t19.5 8.5q12 0 20.5 -8.5t8.5 -19.5v-183h170q11 0 18.5 -7.5t7.5 -18.5q0 -10 -7.5 -18t-18.5 -8h-170v-190zM33 8q-8 8 -8 18
q0 11 8 18.5t18 7.5h397q11 0 18.5 -7.5t7.5 -18.5q0 -10 -7.5 -18t-18.5 -8h-397q-10 0 -18 8z" />
    <glyph glyph-name="uni00B2" unicode="&#xb2;" horiz-adv-x="344" 
d="M25 429.5q-9 8.5 -9 21.5q0 14 13 24q118 82 169 133.5t51 96.5q0 36 -25 54.5t-60 18.5q-56 0 -98 -37q-7 -7 -16 -7q-10 0 -17.5 7.5t-7.5 18.5t8 19q26 24 60.5 36t72.5 12q60 0 101.5 -30.5t41.5 -87.5q0 -56 -50 -111.5t-151 -127.5h183q10 0 17.5 -7t7.5 -17
t-7.5 -17.5t-17.5 -7.5h-245q-12 0 -21 8.5z" />
    <glyph glyph-name="uni00B3" unicode="&#xb3;" horiz-adv-x="368" 
d="M94 427q-35 13 -59 36q-8 8 -8 20q0 10 7.5 17.5t18.5 7.5q10 0 16 -6q21 -18 47 -28.5t54 -10.5q43 0 68 19t25 51q0 36 -28.5 52.5t-75.5 16.5h-20q-10 0 -17.5 7t-7.5 17t7.5 17t17.5 7h19q45 0 71.5 15.5t26.5 48.5q0 30 -25.5 47t-63.5 17q-55 0 -95 -36
q-7 -5 -16 -5q-10 0 -17 7t-7 17t9 19q56 47 131 47q64 0 104 -29t40 -78q0 -40 -27 -63.5t-62 -29.5q34 -3 65 -28t31 -69q0 -52 -41 -84t-110 -32q-43 0 -78 13z" />
    <glyph glyph-name="acute" unicode="&#xb4;" horiz-adv-x="226" 
d="M44 552q-8 0 -14 6t-6 14q0 9 7 14l114 111q7 7 18 7q10 0 17.5 -7t7.5 -18q0 -12 -9 -19l-121 -103q-5 -5 -14 -5z" />
    <glyph glyph-name="uni00B5" unicode="&#xb5;" horiz-adv-x="565" 
d="M542 43q7 -10 7 -22q0 -13 -9 -22.5t-22 -10.5h-10q-89 0 -105 87q-27 -38 -67.5 -62.5t-84.5 -24.5q-75 0 -101 48v-187q0 -15 -11 -26t-27 -11q-15 0 -26 11t-11 26v601q0 15 11 26t27 11q15 0 26 -11t11 -26v-285q0 -112 110 -112q41 0 80 22t61 53v322q0 15 11 26
t26 11q16 0 27 -11t11 -26v-337q0 -26 10.5 -41.5t28.5 -16.5l7 -1q13 -1 20 -11z" />
    <glyph glyph-name="paragraph" unicode="&#xb6;" horiz-adv-x="449" 
d="M339.5 -97.5q-6.5 6.5 -6.5 15.5v704h-89v-704q0 -9 -6.5 -15.5t-16.5 -6.5q-9 0 -15.5 6.5t-6.5 15.5v405q-47 0 -86.5 23t-62.5 62.5t-23 86.5t23 86.5t62.5 62.5t86.5 23h135q21 0 32.5 -11.5t11.5 -32.5v-705q0 -9 -6.5 -15.5t-15.5 -6.5q-10 0 -16.5 6.5z" />
    <glyph glyph-name="periodcentered" unicode="&#xb7;" horiz-adv-x="230" 
d="M76.5 206q-16.5 16 -16.5 38q0 23 16.5 39t38.5 16q23 0 39 -16t16 -39q0 -22 -16.5 -38t-38.5 -16t-38.5 16z" />
    <glyph glyph-name="cedilla" unicode="&#xb8;" horiz-adv-x="205" 
d="M51.5 -185q-23.5 6 -40.5 16q-11 7 -11 19q0 8 6 14.5t15 6.5q6 0 11 -4q31 -19 67 -19q25 0 43 11.5t18 30.5q0 16 -9.5 25.5t-27.5 9.5t-32 -11q-5 -5 -13 -5q-10 0 -16.5 6.5t-6.5 16.5q0 3 2 9l26 70h45l-26 -66q16 11 37 11q29 0 47.5 -18.5t18.5 -48.5
q0 -36 -30 -58t-74 -22q-26 0 -49.5 6z" />
    <glyph glyph-name="uni00B9" unicode="&#xb9;" horiz-adv-x="229" 
d="M117.5 426q-8.5 9 -8.5 21v296l-50 -53q-8 -8 -19 -8q-10 0 -17.5 7.5t-7.5 18.5q0 10 8 18l88 89q10 10 24 10t24 -10t10 -24v-344q0 -12 -8.5 -21t-21.5 -9t-21.5 9z" />
    <glyph glyph-name="ordmasculine" unicode="&#xba;" horiz-adv-x="405" 
d="M60 566.5q20 37.5 57 59.5t85 22q49 0 86 -22t57 -59.5t20 -83.5t-20 -83.5t-57 -59.5t-86 -22q-48 0 -85 22t-57 59.5t-20 83.5t20 83.5zM278 565.5q-28 32.5 -76 32.5q-47 0 -74.5 -32.5t-27.5 -82.5q0 -51 27.5 -84t74.5 -33q48 0 76 33t28 84q0 50 -28 82.5z" />
    <glyph glyph-name="guillemotright" unicode="&#xbb;" horiz-adv-x="439" 
d="M68.5 67.5q-8.5 8.5 -8.5 19.5q0 10 7 19l123 137l-122 135q-7 9 -7 18q0 11 8 19.5t20 8.5q14 0 21 -9l127 -140q14 -16 14 -32q0 -15 -14 -32l-127 -143q-9 -9 -21 -9t-20.5 8.5zM212.5 67.5q-8.5 8.5 -8.5 19.5q0 10 7 19l123 137l-122 135q-7 9 -7 18q0 11 8 19.5
t20 8.5q13 0 21 -9l127 -140q14 -16 14 -32q0 -15 -14 -32l-127 -143q-9 -9 -21 -9t-20.5 8.5z" />
    <glyph glyph-name="onequarter" unicode="&#xbc;" horiz-adv-x="706" 
d="M117.5 272q-8.5 9 -8.5 21v296l-50 -53q-8 -8 -19 -8q-10 0 -17.5 7.5t-7.5 18.5q0 10 8 18l88 89q10 10 24 10t24 -10t10 -24v-344q0 -12 -8.5 -21t-21.5 -9t-21.5 9zM132 -4q-10 0 -16.5 6.5t-6.5 15.5q0 8 3 14l402 629q6 10 20 10q10 0 16.5 -6.5t6.5 -16.5
q0 -7 -3 -13l-403 -629q-7 -10 -19 -10zM687 142q7 -7 7 -17t-7 -17.5t-17 -7.5h-38v-74q0 -13 -8.5 -21.5t-20.5 -8.5q-13 0 -21.5 8.5t-8.5 21.5v74h-172q-12 0 -20.5 8.5t-8.5 20.5q0 6 5 16l160 236q7 11 18.5 17t24.5 6q22 0 37 -15.5t15 -36.5v-203h38q10 0 17 -7z
M437 149h136v198z" />
    <glyph glyph-name="onehalf" unicode="&#xbd;" horiz-adv-x="746" 
d="M117.5 272q-8.5 9 -8.5 21v296l-50 -53q-8 -8 -19 -8q-10 0 -17.5 7.5t-7.5 18.5q0 10 8 18l88 89q10 10 24 10t24 -10t10 -24v-344q0 -12 -8.5 -21t-21.5 -9t-21.5 9zM132 -4q-10 0 -16.5 6.5t-6.5 15.5q0 8 3 14l402 629q6 10 20 10q10 0 16.5 -6.5t6.5 -16.5
q0 -7 -3 -13l-403 -629q-7 -10 -19 -10zM427 8.5q-9 8.5 -9 21.5q0 14 13 24q118 82 169 133.5t51 96.5q0 36 -25 54.5t-60 18.5q-56 0 -98 -37q-7 -7 -16 -7q-10 0 -17.5 7.5t-7.5 18.5t8 19q26 24 60.5 36t72.5 12q60 0 101.5 -30.5t41.5 -87.5q0 -56 -50 -111.5
t-151 -127.5h183q10 0 17.5 -7t7.5 -17t-7.5 -17.5t-17.5 -7.5h-245q-12 0 -21 8.5z" />
    <glyph glyph-name="threequarters" unicode="&#xbe;" horiz-adv-x="810" 
d="M94 273q-35 13 -59 36q-8 8 -8 20q0 10 7.5 17.5t18.5 7.5q10 0 16 -6q21 -18 47 -28.5t54 -10.5q43 0 68 19t25 51q0 36 -28.5 52.5t-75.5 16.5h-20q-10 0 -17.5 7t-7.5 17t7.5 17t17.5 7h19q45 0 71.5 15.5t26.5 48.5q0 30 -25.5 47t-63.5 17q-55 0 -95 -36
q-7 -5 -16 -5q-10 0 -17 7t-7 17t9 19q56 47 131 47q64 0 104 -29t40 -78q0 -40 -27 -63.5t-62 -29.5q34 -3 65 -28t31 -69q0 -52 -41 -84t-110 -32q-43 0 -78 13zM236 -4q-10 0 -16.5 6.5t-6.5 15.5q0 8 3 14l402 629q6 10 20 10q10 0 16.5 -6.5t6.5 -16.5q0 -7 -3 -13
l-403 -629q-7 -10 -19 -10zM791 142q7 -7 7 -17t-7 -17.5t-17 -7.5h-38v-74q0 -13 -8.5 -21.5t-20.5 -8.5q-13 0 -21.5 8.5t-8.5 21.5v74h-172q-12 0 -20.5 8.5t-8.5 20.5q0 6 5 16l160 236q7 11 18.5 17t24.5 6q22 0 37 -15.5t15 -36.5v-203h38q10 0 17 -7zM541 149h136
v198z" />
    <glyph glyph-name="questiondown" unicode="&#xbf;" horiz-adv-x="394" 
d="M276.5 399q-16.5 -16 -38.5 -16t-38.5 16t-16.5 38q0 23 16.5 39.5t38.5 16.5t38.5 -16.5t16.5 -39.5q0 -22 -16.5 -38zM284 161q-13 -24 -32 -40.5t-51 -38.5q-43 -30 -63.5 -52.5t-20.5 -57.5q0 -40 30.5 -66t86.5 -26q46 0 78.5 14.5t59.5 43.5q9 9 24 9
q16 0 26.5 -10.5t10.5 -25.5q0 -18 -12 -27q-77 -79 -194 -79q-59 0 -103.5 20.5t-68.5 56t-24 79.5q0 39 15.5 68t38 48.5t58.5 44.5q43 30 62 50.5t19 49.5q0 11 -10 26q-3 6 -3 10q0 15 10.5 25.5t25.5 10.5q9 0 16.5 -4.5t12.5 -12.5q21 -27 21 -61q0 -31 -13 -55z" />
    <glyph glyph-name="Agrave" unicode="&#xc0;" horiz-adv-x="658" 
d="M630 39q0 -18 -12.5 -30.5t-29.5 -12.5q-13 0 -24 7.5t-16 19.5l-48 125h-343l-48 -125q-4 -12 -14.5 -19.5t-24.5 -7.5q-18 0 -30.5 12.5t-12.5 29.5q0 5 4 17l230 570q8 21 26.5 33.5t41.5 12.5t41 -12.5t26 -33.5l231 -570q3 -15 3 -16zM186 222h286l-143 371z
M190 827q-9 7 -9 19q0 11 7 18t18 7t18 -7l114 -111q7 -5 7 -14q0 -8 -6 -14t-14 -6q-9 0 -14 5z" />
    <glyph glyph-name="Aacute" unicode="&#xc1;" horiz-adv-x="658" 
d="M630 39q0 -18 -12.5 -30.5t-29.5 -12.5q-13 0 -24 7.5t-16 19.5l-48 125h-343l-48 -125q-4 -12 -14.5 -19.5t-24.5 -7.5q-18 0 -30.5 12.5t-12.5 29.5q0 5 4 17l230 570q8 21 26.5 33.5t41.5 12.5t41 -12.5t26 -33.5l231 -570q3 -15 3 -16zM186 222h286l-143 371z
M336 719q-8 0 -14 6t-6 14q0 9 7 14l114 111q7 7 18 7q10 0 17.5 -7t7.5 -18q0 -12 -9 -19l-121 -103q-5 -5 -14 -5z" />
    <glyph glyph-name="Acircumflex" unicode="&#xc2;" horiz-adv-x="658" 
d="M630 39q0 -18 -12.5 -30.5t-29.5 -12.5q-13 0 -24 7.5t-16 19.5l-48 125h-343l-48 -125q-4 -12 -14.5 -19.5t-24.5 -7.5q-18 0 -30.5 12.5t-12.5 29.5q0 5 4 17l230 570q8 21 26.5 33.5t41.5 12.5t41 -12.5t26 -33.5l231 -570q3 -15 3 -16zM186 222h286l-143 371z
M330 829l-80 -105q-4 -7 -16 -7q-9 0 -15.5 6t-6.5 16q0 5 3 11l70 104q6 8 16 13.5t20 5.5h18q10 0 20 -5.5t16 -13.5l70 -104q3 -6 3 -11q0 -10 -6.5 -16t-15.5 -6q-12 0 -16 7z" />
    <glyph glyph-name="Atilde" unicode="&#xc3;" horiz-adv-x="658" 
d="M630 39q0 -18 -12.5 -30.5t-29.5 -12.5q-13 0 -24 7.5t-16 19.5l-48 125h-343l-48 -125q-4 -12 -14.5 -19.5t-24.5 -7.5q-18 0 -30.5 12.5t-12.5 29.5q0 5 4 17l230 570q8 21 26.5 33.5t41.5 12.5t41 -12.5t26 -33.5l231 -570q3 -15 3 -16zM186 222h286l-143 371z
M346.5 734.5q-15.5 13.5 -33.5 39.5q-13 20 -22.5 29.5t-24.5 9.5q-19 0 -32 -17.5t-16 -52.5q-1 -8 -7 -14t-15 -6q-10 0 -16.5 7.5t-5.5 16.5q5 52 30 83t66 31q26 0 41.5 -13.5t33.5 -39.5q15 -21 24 -30t24 -9q18 0 31 17.5t16 52.5q1 9 7.5 14.5t14.5 5.5q10 0 17 -7
t6 -17q-5 -53 -30 -83.5t-66 -30.5q-27 0 -42.5 13.5z" />
    <glyph glyph-name="Adieresis" unicode="&#xc4;" horiz-adv-x="658" 
d="M630 39q0 -18 -12.5 -30.5t-29.5 -12.5q-13 0 -24 7.5t-16 19.5l-48 125h-343l-48 -125q-4 -12 -14.5 -19.5t-24.5 -7.5q-18 0 -30.5 12.5t-12.5 29.5q0 5 4 17l230 570q8 21 26.5 33.5t41.5 12.5t41 -12.5t26 -33.5l231 -570q3 -15 3 -16zM186 222h286l-143 371z
M193.5 747q-13.5 14 -13.5 33t13.5 32.5t32.5 13.5t32.5 -13.5t13.5 -32.5q0 -20 -13.5 -33.5t-32.5 -13.5t-32.5 14zM399.5 747q-13.5 14 -13.5 33t14 32.5t33 13.5t32.5 -13.5t13.5 -32.5t-13.5 -33t-32.5 -14q-20 0 -33.5 14z" />
    <glyph glyph-name="Aring" unicode="&#xc5;" horiz-adv-x="658" 
d="M630 39q0 -18 -12.5 -30.5t-29.5 -12.5q-13 0 -24 7.5t-16 19.5l-48 125h-343l-48 -125q-4 -12 -14.5 -19.5t-24.5 -7.5q-18 0 -30.5 12.5t-12.5 29.5q0 5 4 17l230 570q8 21 26.5 33.5t41.5 12.5t41 -12.5t26 -33.5l231 -570q3 -15 3 -16zM186 222h286l-143 371z
M260 878q29 29 69 29t69 -29t29 -70q0 -40 -29 -69t-69 -29q-41 0 -69.5 29t-28.5 69q0 41 29 70zM370.5 850q-16.5 17 -41.5 17q-24 0 -41 -17t-17 -42q0 -24 17 -41.5t41 -17.5t41 17.5t17 41.5q0 25 -16.5 42z" />
    <glyph glyph-name="AE" unicode="&#xc6;" horiz-adv-x="947" 
d="M886.5 63q11.5 -11 11.5 -26t-11.5 -26t-26.5 -11h-360q-21 0 -32.5 11.5t-11.5 32.5v104h-267l-81 -134q-5 -8 -14.5 -13t-19.5 -5q-16 0 -27.5 11.5t-11.5 27.5q0 8 6 20l363 582q19 30 54 30h402q15 0 26.5 -11t11.5 -26t-11.5 -26t-26.5 -11h-321v-215h314
q15 0 26.5 -11t11.5 -26t-11.5 -26t-26.5 -11h-314v-230h321q15 0 26.5 -11zM233 222h223v371z" />
    <glyph glyph-name="Ccedilla" unicode="&#xc7;" horiz-adv-x="670" 
d="M618.5 139.5q11.5 -11.5 11.5 -27.5q0 -17 -10 -27q-87 -91 -214 -97l-17 -43q16 11 37 11q29 0 47.5 -18.5t18.5 -48.5q0 -36 -30 -58t-74 -22q-26 0 -49.5 6t-40.5 16q-11 7 -11 19q0 8 6 14.5t15 6.5q6 0 11 -4q31 -19 67 -19q25 0 43 11.5t18 30.5q0 16 -9.5 25.5
t-27.5 9.5t-32 -11q-5 -5 -13 -5q-10 0 -16.5 6.5t-6.5 16.5q0 3 2 9l18 48q-87 7 -158 52.5t-112 121t-41 170.5q0 100 45 179t123 122.5t172 43.5q139 0 229 -97q10 -10 10 -27q0 -16 -11.5 -27.5t-27.5 -11.5q-19 0 -30 13q-32 36 -76 56t-94 20q-71 0 -129 -34.5
t-91.5 -96.5t-33.5 -140t33.5 -139.5t91.5 -96.5t129 -35q50 0 94.5 20t75.5 56q11 13 30 13q16 0 27.5 -11.5z" />
    <glyph glyph-name="Egrave" unicode="&#xc8;" horiz-adv-x="569" 
d="M89.5 11.5q-11.5 11.5 -11.5 32.5v579q0 21 11.5 32.5t32.5 11.5h360q15 0 26.5 -11t11.5 -26t-11.5 -26t-26.5 -11h-321v-215h314q15 0 26.5 -11t11.5 -26t-11.5 -26t-26.5 -11h-314v-230h321q15 0 26.5 -11t11.5 -26t-11.5 -26t-26.5 -11h-360q-21 0 -32.5 11.5z
M163 827q-9 7 -9 19q0 11 7 18t18 7t18 -7l114 -111q7 -5 7 -14q0 -8 -6 -14t-14 -6q-9 0 -14 5z" />
    <glyph glyph-name="Eacute" unicode="&#xc9;" horiz-adv-x="569" 
d="M89.5 11.5q-11.5 11.5 -11.5 32.5v579q0 21 11.5 32.5t32.5 11.5h360q15 0 26.5 -11t11.5 -26t-11.5 -26t-26.5 -11h-321v-215h314q15 0 26.5 -11t11.5 -26t-11.5 -26t-26.5 -11h-314v-230h321q15 0 26.5 -11t11.5 -26t-11.5 -26t-26.5 -11h-360q-21 0 -32.5 11.5z
M309 719q-8 0 -14 6t-6 14q0 9 7 14l114 111q7 7 18 7q10 0 17.5 -7t7.5 -18q0 -12 -9 -19l-121 -103q-5 -5 -14 -5z" />
    <glyph glyph-name="Ecircumflex" unicode="&#xca;" horiz-adv-x="569" 
d="M89.5 11.5q-11.5 11.5 -11.5 32.5v579q0 21 11.5 32.5t32.5 11.5h360q15 0 26.5 -11t11.5 -26t-11.5 -26t-26.5 -11h-321v-215h314q15 0 26.5 -11t11.5 -26t-11.5 -26t-26.5 -11h-314v-230h321q15 0 26.5 -11t11.5 -26t-11.5 -26t-26.5 -11h-360q-21 0 -32.5 11.5z
M303 829l-80 -105q-4 -7 -16 -7q-9 0 -15.5 6t-6.5 16q0 5 3 11l70 104q6 8 16 13.5t20 5.5h18q10 0 20 -5.5t16 -13.5l70 -104q3 -6 3 -11q0 -10 -6.5 -16t-15.5 -6q-12 0 -16 7z" />
    <glyph glyph-name="Edieresis" unicode="&#xcb;" horiz-adv-x="569" 
d="M89.5 11.5q-11.5 11.5 -11.5 32.5v579q0 21 11.5 32.5t32.5 11.5h360q15 0 26.5 -11t11.5 -26t-11.5 -26t-26.5 -11h-321v-215h314q15 0 26.5 -11t11.5 -26t-11.5 -26t-26.5 -11h-314v-230h321q15 0 26.5 -11t11.5 -26t-11.5 -26t-26.5 -11h-360q-21 0 -32.5 11.5z
M166.5 747q-13.5 14 -13.5 33t13.5 32.5t32.5 13.5t32.5 -13.5t13.5 -32.5q0 -20 -13.5 -33.5t-32.5 -13.5t-32.5 14zM372.5 747q-13.5 14 -13.5 33t14 32.5t33 13.5t32.5 -13.5t13.5 -32.5t-13.5 -33t-32.5 -14q-20 0 -33.5 14z" />
    <glyph glyph-name="Igrave" unicode="&#xcc;" horiz-adv-x="239" 
d="M90 8q-12 12 -12 29v593q0 17 12 29t30 12q17 0 29 -12t12 -29v-593q0 -16 -12 -28.5t-29 -12.5q-18 0 -30 12zM-19 827q-9 7 -9 19q0 11 7 18t18 7t18 -7l114 -111q7 -5 7 -14q0 -8 -6 -14t-14 -6q-9 0 -14 5z" />
    <glyph glyph-name="Iacute" unicode="&#xcd;" horiz-adv-x="239" 
d="M90 8q-12 12 -12 29v593q0 17 12 29t30 12q17 0 29 -12t12 -29v-593q0 -16 -12 -28.5t-29 -12.5q-18 0 -30 12zM127 719q-8 0 -14 6t-6 14q0 9 7 14l114 111q7 7 18 7q10 0 17.5 -7t7.5 -18q0 -12 -9 -19l-121 -103q-5 -5 -14 -5z" />
    <glyph glyph-name="Icircumflex" unicode="&#xce;" horiz-adv-x="239" 
d="M90 8q-12 12 -12 29v593q0 17 12 29t30 12q17 0 29 -12t12 -29v-593q0 -16 -12 -28.5t-29 -12.5q-18 0 -30 12zM121 829l-80 -105q-4 -7 -16 -7q-9 0 -15.5 6t-6.5 16q0 5 3 11l70 104q6 8 16 13.5t20 5.5h18q10 0 20 -5.5t16 -13.5l70 -104q3 -6 3 -11q0 -10 -6.5 -16
t-15.5 -6q-12 0 -16 7z" />
    <glyph glyph-name="Idieresis" unicode="&#xcf;" horiz-adv-x="239" 
d="M90 8q-12 12 -12 29v593q0 17 12 29t30 12q17 0 29 -12t12 -29v-593q0 -16 -12 -28.5t-29 -12.5q-18 0 -30 12zM-15.5 747q-13.5 14 -13.5 33t13.5 32.5t32.5 13.5t32.5 -13.5t13.5 -32.5q0 -20 -13.5 -33.5t-32.5 -13.5t-32.5 14zM190.5 747q-13.5 14 -13.5 33t14 32.5
t33 13.5t32.5 -13.5t13.5 -32.5t-13.5 -33t-32.5 -14q-20 0 -33.5 14z" />
    <glyph glyph-name="Eth" unicode="&#xd0;" horiz-adv-x="728" 
d="M513 623.5q78 -43.5 120.5 -120t42.5 -170.5q0 -95 -42.5 -170.5t-120.5 -119t-179 -43.5h-184q-21 0 -32.5 11.5t-11.5 32.5v254h-68q-13 0 -22.5 9.5t-9.5 22.5t9.5 22t22.5 9h68v262q0 21 11.5 32.5t32.5 11.5h184q101 0 179 -43.5zM471 108.5q58 34.5 88.5 93.5
t30.5 131q0 73 -30 132t-88 93.5t-138 34.5h-145v-232h142q13 0 22.5 -9t9.5 -22t-9.5 -22.5t-22.5 -9.5h-142v-224h145q79 0 137 34.5z" />
    <glyph glyph-name="Ntilde" unicode="&#xd1;" horiz-adv-x="708" 
d="M555 1.5q-11 5.5 -18 15.5l-376 521v-501q0 -16 -12 -28.5t-29 -12.5q-18 0 -30 12t-12 29v580q0 22 16 38t38 16q28 0 44 -22l371 -509v490q0 17 12.5 29t28.5 12q18 0 30 -12t12 -29v-583q0 -21 -15 -36t-36 -15q-13 0 -24 5.5zM371.5 734.5q-15.5 13.5 -33.5 39.5
q-13 20 -22.5 29.5t-24.5 9.5q-19 0 -32 -17.5t-16 -52.5q-1 -8 -7 -14t-15 -6q-10 0 -16.5 7.5t-5.5 16.5q5 52 30 83t66 31q26 0 41.5 -13.5t33.5 -39.5q15 -21 24 -30t24 -9q18 0 31 17.5t16 52.5q1 9 7.5 14.5t14.5 5.5q10 0 17 -7t6 -17q-5 -53 -30 -83.5t-66 -30.5
q-27 0 -42.5 13.5z" />
    <glyph glyph-name="Ograve" unicode="&#xd2;" horiz-adv-x="765" 
d="M92.5 509.5q41.5 78.5 117 123.5t172.5 45t172 -45t117 -123.5t42 -176.5t-42 -176.5t-117 -123.5t-172 -45t-172.5 45t-117 123.5t-41.5 176.5t41.5 176.5zM596.5 472.5q-30.5 61.5 -86 96.5t-128.5 35q-74 0 -129.5 -35t-85.5 -96.5t-30 -139.5q0 -77 30 -139t86 -97
t129 -35t128.5 35t86 97t30.5 139q0 78 -30.5 139.5zM242 827q-9 7 -9 19q0 11 7 18t18 7t18 -7l114 -111q7 -5 7 -14q0 -8 -6 -14t-14 -6q-9 0 -14 5z" />
    <glyph glyph-name="Oacute" unicode="&#xd3;" horiz-adv-x="765" 
d="M92.5 509.5q41.5 78.5 117 123.5t172.5 45t172 -45t117 -123.5t42 -176.5t-42 -176.5t-117 -123.5t-172 -45t-172.5 45t-117 123.5t-41.5 176.5t41.5 176.5zM596.5 472.5q-30.5 61.5 -86 96.5t-128.5 35q-74 0 -129.5 -35t-85.5 -96.5t-30 -139.5q0 -77 30 -139t86 -97
t129 -35t128.5 35t86 97t30.5 139q0 78 -30.5 139.5zM388 719q-8 0 -14 6t-6 14q0 9 7 14l114 111q7 7 18 7q10 0 17.5 -7t7.5 -18q0 -12 -9 -19l-121 -103q-5 -5 -14 -5z" />
    <glyph glyph-name="Ocircumflex" unicode="&#xd4;" horiz-adv-x="765" 
d="M92.5 509.5q41.5 78.5 117 123.5t172.5 45t172 -45t117 -123.5t42 -176.5t-42 -176.5t-117 -123.5t-172 -45t-172.5 45t-117 123.5t-41.5 176.5t41.5 176.5zM596.5 472.5q-30.5 61.5 -86 96.5t-128.5 35q-74 0 -129.5 -35t-85.5 -96.5t-30 -139.5q0 -77 30 -139t86 -97
t129 -35t128.5 35t86 97t30.5 139q0 78 -30.5 139.5zM382 829l-80 -105q-4 -7 -16 -7q-9 0 -15.5 6t-6.5 16q0 5 3 11l70 104q6 8 16 13.5t20 5.5h18q10 0 20 -5.5t16 -13.5l70 -104q3 -6 3 -11q0 -10 -6.5 -16t-15.5 -6q-12 0 -16 7z" />
    <glyph glyph-name="Otilde" unicode="&#xd5;" horiz-adv-x="765" 
d="M92.5 509.5q41.5 78.5 117 123.5t172.5 45t172 -45t117 -123.5t42 -176.5t-42 -176.5t-117 -123.5t-172 -45t-172.5 45t-117 123.5t-41.5 176.5t41.5 176.5zM596.5 472.5q-30.5 61.5 -86 96.5t-128.5 35q-74 0 -129.5 -35t-85.5 -96.5t-30 -139.5q0 -77 30 -139t86 -97
t129 -35t128.5 35t86 97t30.5 139q0 78 -30.5 139.5zM398.5 734.5q-15.5 13.5 -33.5 39.5q-13 20 -22.5 29.5t-24.5 9.5q-19 0 -32 -17.5t-16 -52.5q-1 -8 -7 -14t-15 -6q-10 0 -16.5 7.5t-5.5 16.5q5 52 30 83t66 31q26 0 41.5 -13.5t33.5 -39.5q15 -21 24 -30t24 -9
q18 0 31 17.5t16 52.5q1 9 7.5 14.5t14.5 5.5q10 0 17 -7t6 -17q-5 -53 -30 -83.5t-66 -30.5q-27 0 -42.5 13.5z" />
    <glyph glyph-name="Odieresis" unicode="&#xd6;" horiz-adv-x="765" 
d="M92.5 509.5q41.5 78.5 117 123.5t172.5 45t172 -45t117 -123.5t42 -176.5t-42 -176.5t-117 -123.5t-172 -45t-172.5 45t-117 123.5t-41.5 176.5t41.5 176.5zM596.5 472.5q-30.5 61.5 -86 96.5t-128.5 35q-74 0 -129.5 -35t-85.5 -96.5t-30 -139.5q0 -77 30 -139t86 -97
t129 -35t128.5 35t86 97t30.5 139q0 78 -30.5 139.5zM245.5 747q-13.5 14 -13.5 33t13.5 32.5t32.5 13.5t32.5 -13.5t13.5 -32.5q0 -20 -13.5 -33.5t-32.5 -13.5t-32.5 14zM451.5 747q-13.5 14 -13.5 33t14 32.5t33 13.5t32.5 -13.5t13.5 -32.5t-13.5 -33t-32.5 -14
q-20 0 -33.5 14z" />
    <glyph glyph-name="multiply" unicode="&#xd7;" horiz-adv-x="499" 
d="M116 163q-7 -7 -18 -7q-10 0 -18 8t-8 18t7 19l133 133l-133 133q-7 7 -7 18t7.5 19t18.5 8q9 0 19 -8l132 -133l133 133q10 8 19 8q11 0 18.5 -8t7.5 -19q0 -12 -8 -18l-132 -133l132 -133q8 -8 8 -19q0 -10 -7.5 -18t-18.5 -8t-18 7l-134 134z" />
    <glyph glyph-name="Oslash" unicode="&#xd8;" horiz-adv-x="765" 
d="M682 487.5q31 -70.5 31 -154.5q0 -98 -42 -176.5t-117 -123.5t-172 -45t-173 45l-17 -25q-3 -5 -9 -8.5t-13 -3.5q-11 0 -19 8t-8 19q0 8 4 16l18 26q-54 47 -84 116t-30 152q0 98 41.5 176.5t117 123.5t172.5 45q94 0 167 -42l16 23q3 5 9 8.5t13 3.5q11 0 19 -8t8 -19
q0 -9 -5 -16l-15 -23q57 -47 88 -117.5zM156 220.5q19 -51.5 54 -88.5l296 440q-56 32 -124 32q-74 0 -129.5 -35t-85.5 -96.5t-30 -139.5q0 -61 19 -112.5zM510.5 97q55.5 35 86 97t30.5 139q0 63 -20 116t-58 90l-297 -441q56 -36 130 -36q73 0 128.5 35z" />
    <glyph glyph-name="Ugrave" unicode="&#xd9;" horiz-adv-x="700" 
d="M78 630q0 17 12 29t30 12q17 0 29 -12t12 -29v-369q0 -93 49 -146t140 -53t140 53t49 146v369q0 17 12 29t30 12q17 0 29 -12t12 -29v-370q0 -127 -69.5 -199.5t-202.5 -72.5t-202.5 72.5t-69.5 198.5v371zM211 827q-9 7 -9 19q0 11 7 18t18 7t18 -7l114 -111q7 -5 7 -14
q0 -8 -6 -14t-14 -6q-9 0 -14 5z" />
    <glyph glyph-name="Uacute" unicode="&#xda;" horiz-adv-x="700" 
d="M78 630q0 17 12 29t30 12q17 0 29 -12t12 -29v-369q0 -93 49 -146t140 -53t140 53t49 146v369q0 17 12 29t30 12q17 0 29 -12t12 -29v-370q0 -127 -69.5 -199.5t-202.5 -72.5t-202.5 72.5t-69.5 198.5v371zM357 719q-8 0 -14 6t-6 14q0 9 7 14l114 111q7 7 18 7
q10 0 17.5 -7t7.5 -18q0 -12 -9 -19l-121 -103q-5 -5 -14 -5z" />
    <glyph glyph-name="Ucircumflex" unicode="&#xdb;" horiz-adv-x="700" 
d="M78 630q0 17 12 29t30 12q17 0 29 -12t12 -29v-369q0 -93 49 -146t140 -53t140 53t49 146v369q0 17 12 29t30 12q17 0 29 -12t12 -29v-370q0 -127 -69.5 -199.5t-202.5 -72.5t-202.5 72.5t-69.5 198.5v371zM351 829l-80 -105q-4 -7 -16 -7q-9 0 -15.5 6t-6.5 16q0 5 3 11
l70 104q6 8 16 13.5t20 5.5h18q10 0 20 -5.5t16 -13.5l70 -104q3 -6 3 -11q0 -10 -6.5 -16t-15.5 -6q-12 0 -16 7z" />
    <glyph glyph-name="Udieresis" unicode="&#xdc;" horiz-adv-x="700" 
d="M78 630q0 17 12 29t30 12q17 0 29 -12t12 -29v-369q0 -93 49 -146t140 -53t140 53t49 146v369q0 17 12 29t30 12q17 0 29 -12t12 -29v-370q0 -127 -69.5 -199.5t-202.5 -72.5t-202.5 72.5t-69.5 198.5v371zM214.5 747q-13.5 14 -13.5 33t13.5 32.5t32.5 13.5t32.5 -13.5
t13.5 -32.5q0 -20 -13.5 -33.5t-32.5 -13.5t-32.5 14zM420.5 747q-13.5 14 -13.5 33t14 32.5t33 13.5t32.5 -13.5t13.5 -32.5t-13.5 -33t-32.5 -14q-20 0 -33.5 14z" />
    <glyph glyph-name="Yacute" unicode="&#xdd;" horiz-adv-x="626" 
d="M578 609l-223 -327v-245q0 -17 -12.5 -29t-29.5 -12t-29 12t-12 29v245l-224 326q-7 8 -7 23q0 17 12 28.5t28 11.5q23 0 34 -18l198 -297l197 297q13 18 34 18q17 0 29 -12t12 -28q0 -11 -7 -22zM320 719q-8 0 -14 6t-6 14q0 9 7 14l114 111q7 7 18 7q10 0 17.5 -7
t7.5 -18q0 -12 -9 -19l-121 -103q-5 -5 -14 -5z" />
    <glyph glyph-name="Thorn" unicode="&#xde;" horiz-adv-x="587" 
d="M90 8q-12 12 -12 29v593q0 17 12 29t29 12t29.5 -12t12.5 -29v-82h185q65 0 112.5 -27t72 -73.5t24.5 -101.5t-25 -100.5t-72.5 -72.5t-111.5 -27h-185v-109q0 -16 -12 -28.5t-29 -12.5q-18 0 -30 12zM432 438q-37 36 -96 36h-175v-254h175q59 0 96 35t37 91t-37 92z" />
    <glyph glyph-name="germandbls" unicode="&#xdf;" horiz-adv-x="597" 
d="M296.5 3.5q-38.5 15.5 -72.5 44.5q-11 11 -11 24t9 22.5t22 9.5q11 0 20 -7q57 -48 128 -48q54 0 83.5 24.5t29.5 59.5q0 24 -15.5 39.5t-39 24.5t-65.5 20q-52 13 -86 26t-57.5 40.5t-23.5 72.5q0 41 23 67t64 52q31 21 45 34.5t14 32.5q0 32 -30 50t-69 18
q-49 0 -82 -30.5t-33 -80.5v-466q0 -15 -11 -26t-26 -11q-16 0 -27 11t-11 26v466q0 49 23.5 89.5t67 64.5t100.5 24q72 0 123.5 -34.5t51.5 -91.5q0 -39 -21.5 -62.5t-62.5 -50.5q-33 -22 -49.5 -39t-16.5 -42q0 -30 27.5 -44.5t85.5 -27.5q54 -13 89 -27t60 -43.5
t25 -79.5q0 -40 -21 -73.5t-63 -53.5t-102 -20q-57 0 -95.5 15.5z" />
    <glyph glyph-name="agrave" unicode="&#xe0;" horiz-adv-x="527" 
d="M400 455q52 -40 52 -123v-299q0 -15 -11 -26t-27 -11q-15 0 -26 11t-11 26v22q-28 -33 -69 -50t-91 -17q-43 0 -81.5 18.5t-63 55t-24.5 86.5q0 51 24.5 87t63 54t81.5 18q103 0 160 -66v87q0 48 -34 75t-88 27q-37 0 -67.5 -11.5t-58.5 -36.5q-10 -6 -20 -6q-13 0 -22 9
t-9 22q0 7 4 14t9 11q72 63 174 63q83 0 135 -40zM320.5 57.5q35.5 15.5 56.5 44.5v91q-21 29 -56.5 44.5t-76.5 15.5q-52 0 -85.5 -29.5t-33.5 -76.5q0 -46 33.5 -75.5t85.5 -29.5q41 0 76.5 15.5zM127 680q-9 7 -9 19q0 11 7 18t18 7t18 -7l114 -111q7 -5 7 -14
q0 -8 -6 -14t-14 -6q-9 0 -14 5z" />
    <glyph glyph-name="aacute" unicode="&#xe1;" horiz-adv-x="527" 
d="M400 455q52 -40 52 -123v-299q0 -15 -11 -26t-27 -11q-15 0 -26 11t-11 26v22q-28 -33 -69 -50t-91 -17q-43 0 -81.5 18.5t-63 55t-24.5 86.5q0 51 24.5 87t63 54t81.5 18q103 0 160 -66v87q0 48 -34 75t-88 27q-37 0 -67.5 -11.5t-58.5 -36.5q-10 -6 -20 -6q-13 0 -22 9
t-9 22q0 7 4 14t9 11q72 63 174 63q83 0 135 -40zM320.5 57.5q35.5 15.5 56.5 44.5v91q-21 29 -56.5 44.5t-76.5 15.5q-52 0 -85.5 -29.5t-33.5 -76.5q0 -46 33.5 -75.5t85.5 -29.5q41 0 76.5 15.5zM273 572q-8 0 -14 6t-6 14q0 9 7 14l114 111q7 7 18 7q10 0 17.5 -7
t7.5 -18q0 -12 -9 -19l-121 -103q-5 -5 -14 -5z" />
    <glyph glyph-name="acircumflex" unicode="&#xe2;" horiz-adv-x="527" 
d="M400 455q52 -40 52 -123v-299q0 -15 -11 -26t-27 -11q-15 0 -26 11t-11 26v22q-28 -33 -69 -50t-91 -17q-43 0 -81.5 18.5t-63 55t-24.5 86.5q0 51 24.5 87t63 54t81.5 18q103 0 160 -66v87q0 48 -34 75t-88 27q-37 0 -67.5 -11.5t-58.5 -36.5q-10 -6 -20 -6q-13 0 -22 9
t-9 22q0 7 4 14t9 11q72 63 174 63q83 0 135 -40zM320.5 57.5q35.5 15.5 56.5 44.5v91q-21 29 -56.5 44.5t-76.5 15.5q-52 0 -85.5 -29.5t-33.5 -76.5q0 -46 33.5 -75.5t85.5 -29.5q41 0 76.5 15.5zM267 682l-80 -105q-4 -7 -16 -7q-9 0 -15.5 6t-6.5 16q0 5 3 11l70 104
q6 8 16 13.5t20 5.5h18q10 0 20 -5.5t16 -13.5l70 -104q3 -6 3 -11q0 -10 -6.5 -16t-15.5 -6q-12 0 -16 7z" />
    <glyph glyph-name="atilde" unicode="&#xe3;" horiz-adv-x="527" 
d="M400 455q52 -40 52 -123v-299q0 -15 -11 -26t-27 -11q-15 0 -26 11t-11 26v22q-28 -33 -69 -50t-91 -17q-43 0 -81.5 18.5t-63 55t-24.5 86.5q0 51 24.5 87t63 54t81.5 18q103 0 160 -66v87q0 48 -34 75t-88 27q-37 0 -67.5 -11.5t-58.5 -36.5q-10 -6 -20 -6q-13 0 -22 9
t-9 22q0 7 4 14t9 11q72 63 174 63q83 0 135 -40zM320.5 57.5q35.5 15.5 56.5 44.5v91q-21 29 -56.5 44.5t-76.5 15.5q-52 0 -85.5 -29.5t-33.5 -76.5q0 -46 33.5 -75.5t85.5 -29.5q41 0 76.5 15.5zM283.5 587.5q-15.5 13.5 -33.5 39.5q-13 20 -22.5 29.5t-24.5 9.5
q-19 0 -32 -17.5t-16 -52.5q-1 -8 -7 -14t-15 -6q-10 0 -16.5 7.5t-5.5 16.5q5 52 30 83t66 31q26 0 41.5 -13.5t33.5 -39.5q15 -21 24 -30t24 -9q18 0 31 17.5t16 52.5q1 9 7.5 14.5t14.5 5.5q10 0 17 -7t6 -17q-5 -53 -30 -83.5t-66 -30.5q-27 0 -42.5 13.5z" />
    <glyph glyph-name="adieresis" unicode="&#xe4;" horiz-adv-x="527" 
d="M400 455q52 -40 52 -123v-299q0 -15 -11 -26t-27 -11q-15 0 -26 11t-11 26v22q-28 -33 -69 -50t-91 -17q-43 0 -81.5 18.5t-63 55t-24.5 86.5q0 51 24.5 87t63 54t81.5 18q103 0 160 -66v87q0 48 -34 75t-88 27q-37 0 -67.5 -11.5t-58.5 -36.5q-10 -6 -20 -6q-13 0 -22 9
t-9 22q0 7 4 14t9 11q72 63 174 63q83 0 135 -40zM320.5 57.5q35.5 15.5 56.5 44.5v91q-21 29 -56.5 44.5t-76.5 15.5q-52 0 -85.5 -29.5t-33.5 -76.5q0 -46 33.5 -75.5t85.5 -29.5q41 0 76.5 15.5zM130.5 600q-13.5 14 -13.5 33t13.5 32.5t32.5 13.5t32.5 -13.5t13.5 -32.5
q0 -20 -13.5 -33.5t-32.5 -13.5t-32.5 14zM336.5 600q-13.5 14 -13.5 33t14 32.5t33 13.5t32.5 -13.5t13.5 -32.5t-13.5 -33t-32.5 -14q-20 0 -33.5 14z" />
    <glyph glyph-name="aring" unicode="&#xe5;" horiz-adv-x="527" 
d="M400 455q52 -40 52 -123v-299q0 -15 -11 -26t-27 -11q-15 0 -26 11t-11 26v22q-28 -33 -69 -50t-91 -17q-43 0 -81.5 18.5t-63 55t-24.5 86.5q0 51 24.5 87t63 54t81.5 18q103 0 160 -66v87q0 48 -34 75t-88 27q-37 0 -67.5 -11.5t-58.5 -36.5q-10 -6 -20 -6q-13 0 -22 9
t-9 22q0 7 4 14t9 11q72 63 174 63q83 0 135 -40zM320.5 57.5q35.5 15.5 56.5 44.5v91q-21 29 -56.5 44.5t-76.5 15.5q-52 0 -85.5 -29.5t-33.5 -76.5q0 -46 33.5 -75.5t85.5 -29.5q41 0 76.5 15.5zM197 731q29 29 69 29t69 -29t29 -70q0 -40 -29 -69t-69 -29
q-41 0 -69.5 29t-28.5 69q0 41 29 70zM307.5 703q-16.5 17 -41.5 17q-24 0 -41 -17t-17 -42q0 -24 17 -41.5t41 -17.5t41 17.5t17 41.5q0 25 -16.5 42z" />
    <glyph glyph-name="ae" unicode="&#xe6;" horiz-adv-x="889" 
d="M524 99q43 -47 113 -47q67 0 119 43q10 6 18 6q13 0 21.5 -9t8.5 -22q0 -15 -13 -25q-69 -57 -157 -57q-65 0 -114.5 28.5t-78.5 87.5q-26 -52 -79.5 -84t-119.5 -32q-82 0 -138 42.5t-56 117.5q0 50 24.5 86t65 54.5t88.5 18.5q112 0 175 -64v86q0 47 -36.5 74t-96.5 27
q-80 0 -139 -49q-9 -6 -19 -6q-13 0 -22 9.5t-9 22.5q0 8 3.5 15t9.5 11q75 62 185 62q64 0 111 -26t60 -79q27 47 72 76t107 29q67 0 116 -33t74.5 -88t25.5 -119q0 -18 -11.5 -28t-32.5 -10h-323q5 -71 48 -118zM752.5 348q-15.5 37 -48.5 61t-82 24q-45 0 -77.5 -24
t-49.5 -61t-19 -76h293q-1 39 -16.5 76zM338 237q-39 16 -82 16q-59 0 -95 -27.5t-36 -73.5q0 -45 36 -72.5t95 -27.5q41 0 74 18.5t52 48t19 61.5v12q-24 29 -63 45z" />
    <glyph glyph-name="ccedilla" unicode="&#xe7;" horiz-adv-x="495" 
d="M444 97q10 -10 10 -24q0 -7 -3 -14t-8 -11q-55 -55 -136 -59l-17 -44q16 11 37 11q29 0 47.5 -18.5t18.5 -48.5q0 -36 -30 -58t-74 -22q-26 0 -49.5 6t-40.5 16q-11 7 -11 19q0 8 6 14.5t15 6.5q6 0 11 -4q31 -19 67 -19q25 0 43 11.5t18 30.5q0 16 -9.5 25.5t-27.5 9.5
t-32 -11q-5 -5 -13 -5q-10 0 -16.5 6.5t-6.5 16.5q0 3 2 9l18 48q-64 6 -113 40.5t-76 90t-27 122.5q0 71 30.5 129t85 91t125.5 33q50 0 87.5 -15.5t67.5 -44.5q11 -11 11 -25t-10 -24t-24 -10q-13 0 -22 9q-43 43 -106 43q-76 0 -121.5 -52t-45.5 -134t45.5 -134.5
t121.5 -52.5q63 0 105 43q9 9 23 9t24 -10z" />
    <glyph glyph-name="egrave" unicode="&#xe8;" horiz-adv-x="563" 
d="M78 369q31 58 85 92t122 34q70 0 123 -33t81 -88t28 -119q0 -18 -11.5 -28t-32.5 -10h-347q5 -71 52 -119t122 -48q72 0 130 46q7 4 17 4q13 0 22 -8.5t9 -21.5q0 -15 -13 -25q-74 -57 -172 -57q-71 0 -127 32t-87.5 90t-31.5 132q0 69 31 127zM200 409
q-35 -24 -53.5 -61t-20.5 -76h317q-1 39 -18.5 76t-53 61t-87.5 24q-49 0 -84 -24zM145 680q-9 7 -9 19q0 11 7 18t18 7t18 -7l114 -111q7 -5 7 -14q0 -8 -6 -14t-14 -6q-9 0 -14 5z" />
    <glyph glyph-name="eacute" unicode="&#xe9;" horiz-adv-x="563" 
d="M78 369q31 58 85 92t122 34q70 0 123 -33t81 -88t28 -119q0 -18 -11.5 -28t-32.5 -10h-347q5 -71 52 -119t122 -48q72 0 130 46q7 4 17 4q13 0 22 -8.5t9 -21.5q0 -15 -13 -25q-74 -57 -172 -57q-71 0 -127 32t-87.5 90t-31.5 132q0 69 31 127zM200 409
q-35 -24 -53.5 -61t-20.5 -76h317q-1 39 -18.5 76t-53 61t-87.5 24q-49 0 -84 -24zM291 572q-8 0 -14 6t-6 14q0 9 7 14l114 111q7 7 18 7q10 0 17.5 -7t7.5 -18q0 -12 -9 -19l-121 -103q-5 -5 -14 -5z" />
    <glyph glyph-name="ecircumflex" unicode="&#xea;" horiz-adv-x="563" 
d="M78 369q31 58 85 92t122 34q70 0 123 -33t81 -88t28 -119q0 -18 -11.5 -28t-32.5 -10h-347q5 -71 52 -119t122 -48q72 0 130 46q7 4 17 4q13 0 22 -8.5t9 -21.5q0 -15 -13 -25q-74 -57 -172 -57q-71 0 -127 32t-87.5 90t-31.5 132q0 69 31 127zM200 409
q-35 -24 -53.5 -61t-20.5 -76h317q-1 39 -18.5 76t-53 61t-87.5 24q-49 0 -84 -24zM285 682l-80 -105q-4 -7 -16 -7q-9 0 -15.5 6t-6.5 16q0 5 3 11l70 104q6 8 16 13.5t20 5.5h18q10 0 20 -5.5t16 -13.5l70 -104q3 -6 3 -11q0 -10 -6.5 -16t-15.5 -6q-12 0 -16 7z" />
    <glyph glyph-name="edieresis" unicode="&#xeb;" horiz-adv-x="563" 
d="M78 369q31 58 85 92t122 34q70 0 123 -33t81 -88t28 -119q0 -18 -11.5 -28t-32.5 -10h-347q5 -71 52 -119t122 -48q72 0 130 46q7 4 17 4q13 0 22 -8.5t9 -21.5q0 -15 -13 -25q-74 -57 -172 -57q-71 0 -127 32t-87.5 90t-31.5 132q0 69 31 127zM200 409
q-35 -24 -53.5 -61t-20.5 -76h317q-1 39 -18.5 76t-53 61t-87.5 24q-49 0 -84 -24zM148.5 600q-13.5 14 -13.5 33t13.5 32.5t32.5 13.5t32.5 -13.5t13.5 -32.5q0 -20 -13.5 -33.5t-32.5 -13.5t-32.5 14zM354.5 600q-13.5 14 -13.5 33t14 32.5t33 13.5t32.5 -13.5t13.5 -32.5
t-13.5 -33t-32.5 -14q-20 0 -33.5 14z" />
    <glyph glyph-name="igrave" unicode="&#xec;" horiz-adv-x="225" 
d="M86 7q-11 11 -11 26v417q0 15 11 26t27 11q15 0 26 -11t11 -26v-417q0 -15 -11 -26t-27 -11q-15 0 -26 11zM-27 680q-9 7 -9 19q0 11 7 18t18 7t18 -7l114 -111q7 -5 7 -14q0 -8 -6 -14t-14 -6q-9 0 -14 5z" />
    <glyph glyph-name="iacute" unicode="&#xed;" horiz-adv-x="225" 
d="M86 7q-11 11 -11 26v417q0 15 11 26t27 11q15 0 26 -11t11 -26v-417q0 -15 -11 -26t-27 -11q-15 0 -26 11zM119 572q-8 0 -14 6t-6 14q0 9 7 14l114 111q7 7 18 7q10 0 17.5 -7t7.5 -18q0 -12 -9 -19l-121 -103q-5 -5 -14 -5z" />
    <glyph glyph-name="icircumflex" unicode="&#xee;" horiz-adv-x="225" 
d="M86 7q-11 11 -11 26v417q0 15 11 26t27 11q15 0 26 -11t11 -26v-417q0 -15 -11 -26t-27 -11q-15 0 -26 11zM113 682l-80 -105q-4 -7 -16 -7q-9 0 -15.5 6t-6.5 16q0 5 3 11l70 104q6 8 16 13.5t20 5.5h18q10 0 20 -5.5t16 -13.5l70 -104q3 -6 3 -11q0 -10 -6.5 -16
t-15.5 -6q-12 0 -16 7z" />
    <glyph glyph-name="idieresis" unicode="&#xef;" horiz-adv-x="225" 
d="M86 7q-11 11 -11 26v417q0 15 11 26t27 11q15 0 26 -11t11 -26v-417q0 -15 -11 -26t-27 -11q-15 0 -26 11zM-23.5 600q-13.5 14 -13.5 33t13.5 32.5t32.5 13.5t32.5 -13.5t13.5 -32.5q0 -20 -13.5 -33.5t-32.5 -13.5t-32.5 14zM182.5 600q-13.5 14 -13.5 33t14 32.5
t33 13.5t32.5 -13.5t13.5 -32.5t-13.5 -33t-32.5 -14q-20 0 -33.5 14z" />
    <glyph glyph-name="eth" unicode="&#xf0;" horiz-adv-x="572" 
d="M525 247q0 -74 -29.5 -133t-83.5 -92.5t-126 -33.5q-71 0 -125 32t-84 88t-30 126q0 69 28 125t78.5 88t113.5 32q48 0 87 -21.5t71 -67.5q-50 89 -160 171l-126 -56q-2 -2 -9 -2q-9 0 -16 6.5t-7 16.5q0 7 4 12.5t10 7.5l101 45l-46 30q-18 13 -18 32q0 15 11 26t27 11
q11 0 20 -6q58 -38 85 -59l90 40q2 2 9 2q9 0 15.5 -6t6.5 -16q0 -14 -13 -21l-69 -30q185 -159 185 -347zM372 79.5q36 24.5 55 65.5t19 89t-19 88.5t-55 65t-86 24.5t-86.5 -24.5t-55.5 -65t-19 -88.5t19 -89t55.5 -65.5t86.5 -24.5t86 24.5z" />
    <glyph glyph-name="ntilde" unicode="&#xf1;" 
d="M476 339v-306q0 -15 -11 -26t-27 -11q-15 0 -26 11t-11 26v283q0 61 -28 86.5t-80 25.5q-42 0 -81.5 -22t-61.5 -53v-320q0 -15 -11 -26t-26 -11q-16 0 -27 11t-11 26v417q0 15 11 26t26 11q16 0 27 -11t11 -26v-38q28 34 74 58.5t98 24.5q154 0 154 -156zM293.5 587.5
q-15.5 13.5 -33.5 39.5q-13 20 -22.5 29.5t-24.5 9.5q-19 0 -32 -17.5t-16 -52.5q-1 -8 -7 -14t-15 -6q-10 0 -16.5 7.5t-5.5 16.5q5 52 30 83t66 31q26 0 41.5 -13.5t33.5 -39.5q15 -21 24 -30t24 -9q18 0 31 17.5t16 52.5q1 9 7.5 14.5t14.5 5.5q10 0 17 -7t6 -17
q-5 -53 -30 -83.5t-66 -30.5q-27 0 -42.5 13.5z" />
    <glyph glyph-name="ograve" unicode="&#xf2;" horiz-adv-x="572" 
d="M160 22q-54 34 -83.5 92t-29.5 128t29.5 128t83.5 91.5t126 33.5t126 -33.5t83.5 -91.5t29.5 -128t-29.5 -128t-83.5 -92t-126 -34t-126 34zM372 80.5q36 25.5 55 68.5t19 93t-19 92.5t-55 68t-86 25.5t-86.5 -25.5t-55.5 -68t-19 -92.5t19 -93t55.5 -68.5t86.5 -25.5
t86 25.5zM147 680q-9 7 -9 19q0 11 7 18t18 7t18 -7l114 -111q7 -5 7 -14q0 -8 -6 -14t-14 -6q-9 0 -14 5z" />
    <glyph glyph-name="oacute" unicode="&#xf3;" horiz-adv-x="572" 
d="M160 22q-54 34 -83.5 92t-29.5 128t29.5 128t83.5 91.5t126 33.5t126 -33.5t83.5 -91.5t29.5 -128t-29.5 -128t-83.5 -92t-126 -34t-126 34zM372 80.5q36 25.5 55 68.5t19 93t-19 92.5t-55 68t-86 25.5t-86.5 -25.5t-55.5 -68t-19 -92.5t19 -93t55.5 -68.5t86.5 -25.5
t86 25.5zM293 572q-8 0 -14 6t-6 14q0 9 7 14l114 111q7 7 18 7q10 0 17.5 -7t7.5 -18q0 -12 -9 -19l-121 -103q-5 -5 -14 -5z" />
    <glyph glyph-name="ocircumflex" unicode="&#xf4;" horiz-adv-x="572" 
d="M160 22q-54 34 -83.5 92t-29.5 128t29.5 128t83.5 91.5t126 33.5t126 -33.5t83.5 -91.5t29.5 -128t-29.5 -128t-83.5 -92t-126 -34t-126 34zM372 80.5q36 25.5 55 68.5t19 93t-19 92.5t-55 68t-86 25.5t-86.5 -25.5t-55.5 -68t-19 -92.5t19 -93t55.5 -68.5t86.5 -25.5
t86 25.5zM287 682l-80 -105q-4 -7 -16 -7q-9 0 -15.5 6t-6.5 16q0 5 3 11l70 104q6 8 16 13.5t20 5.5h18q10 0 20 -5.5t16 -13.5l70 -104q3 -6 3 -11q0 -10 -6.5 -16t-15.5 -6q-12 0 -16 7z" />
    <glyph glyph-name="otilde" unicode="&#xf5;" horiz-adv-x="572" 
d="M160 22q-54 34 -83.5 92t-29.5 128t29.5 128t83.5 91.5t126 33.5t126 -33.5t83.5 -91.5t29.5 -128t-29.5 -128t-83.5 -92t-126 -34t-126 34zM372 80.5q36 25.5 55 68.5t19 93t-19 92.5t-55 68t-86 25.5t-86.5 -25.5t-55.5 -68t-19 -92.5t19 -93t55.5 -68.5t86.5 -25.5
t86 25.5zM303.5 587.5q-15.5 13.5 -33.5 39.5q-13 20 -22.5 29.5t-24.5 9.5q-19 0 -32 -17.5t-16 -52.5q-1 -8 -7 -14t-15 -6q-10 0 -16.5 7.5t-5.5 16.5q5 52 30 83t66 31q26 0 41.5 -13.5t33.5 -39.5q15 -21 24 -30t24 -9q18 0 31 17.5t16 52.5q1 9 7.5 14.5t14.5 5.5
q10 0 17 -7t6 -17q-5 -53 -30 -83.5t-66 -30.5q-27 0 -42.5 13.5z" />
    <glyph glyph-name="odieresis" unicode="&#xf6;" horiz-adv-x="572" 
d="M160 22q-54 34 -83.5 92t-29.5 128t29.5 128t83.5 91.5t126 33.5t126 -33.5t83.5 -91.5t29.5 -128t-29.5 -128t-83.5 -92t-126 -34t-126 34zM372 80.5q36 25.5 55 68.5t19 93t-19 92.5t-55 68t-86 25.5t-86.5 -25.5t-55.5 -68t-19 -92.5t19 -93t55.5 -68.5t86.5 -25.5
t86 25.5zM150.5 600q-13.5 14 -13.5 33t13.5 32.5t32.5 13.5t32.5 -13.5t13.5 -32.5q0 -20 -13.5 -33.5t-32.5 -13.5t-32.5 14zM356.5 600q-13.5 14 -13.5 33t14 32.5t33 13.5t32.5 -13.5t13.5 -32.5t-13.5 -33t-32.5 -14q-20 0 -33.5 14z" />
    <glyph glyph-name="divide" unicode="&#xf7;" horiz-adv-x="511" 
d="M223 493.5q-13 13.5 -13 32.5t13 32.5t32 13.5q20 0 33.5 -13.5t13.5 -32.5t-14 -32.5t-33 -13.5t-32 13.5zM32.5 318.5q-7.5 7.5 -7.5 18.5t7.5 18.5t18.5 7.5h409q11 0 18.5 -7.5t7.5 -18.5t-7.5 -18.5t-18.5 -7.5h-409q-11 0 -18.5 7.5zM223 111.5q-13 13.5 -13 32.5
t13 32.5t32 13.5t33 -13.5t14 -32.5t-14 -32.5t-33 -13.5t-32 13.5z" />
    <glyph glyph-name="oslash" unicode="&#xf8;" horiz-adv-x="572" 
d="M507 344.5q18 -47.5 18 -102.5q0 -70 -29.5 -128t-83.5 -92t-126 -34q-81 0 -142 45l-23 -29q-6 -8 -16 -8t-16 6t-6 15q0 6 5 13l25 31q-32 34 -49 81t-17 100q0 70 29.5 128t83.5 91.5t126 33.5q79 0 137 -41l20 25q5 8 16 8q9 0 15 -6t6 -15t-4 -13l-21 -26
q34 -35 52 -82.5zM160 121l219 277q-39 30 -93 30q-50 0 -86.5 -25.5t-55.5 -68t-19 -92.5q0 -71 35 -121zM372 80.5q36 25.5 55 68.5t19 93q0 73 -38 125l-220 -278q42 -34 98 -34q50 0 86 25.5z" />
    <glyph glyph-name="ugrave" unicode="&#xf9;" 
d="M465 476q11 -11 11 -26v-417q0 -15 -11 -26t-26 -11q-16 0 -27 11t-11 26v34q-31 -34 -76 -56.5t-96 -22.5q-154 0 -154 154v308q0 15 11 26t27 11q15 0 26 -11t11 -26v-285q0 -60 27.5 -85t80.5 -25q42 0 81.5 21t61.5 52v322q0 15 11 26t26 11q16 0 27 -11zM136 680
q-9 7 -9 19q0 11 7 18t18 7t18 -7l114 -111q7 -5 7 -14q0 -8 -6 -14t-14 -6q-9 0 -14 5z" />
    <glyph glyph-name="uacute" unicode="&#xfa;" 
d="M465 476q11 -11 11 -26v-417q0 -15 -11 -26t-26 -11q-16 0 -27 11t-11 26v34q-31 -34 -76 -56.5t-96 -22.5q-154 0 -154 154v308q0 15 11 26t27 11q15 0 26 -11t11 -26v-285q0 -60 27.5 -85t80.5 -25q42 0 81.5 21t61.5 52v322q0 15 11 26t26 11q16 0 27 -11zM282 572
q-8 0 -14 6t-6 14q0 9 7 14l114 111q7 7 18 7q10 0 17.5 -7t7.5 -18q0 -12 -9 -19l-121 -103q-5 -5 -14 -5z" />
    <glyph glyph-name="ucircumflex" unicode="&#xfb;" 
d="M465 476q11 -11 11 -26v-417q0 -15 -11 -26t-26 -11q-16 0 -27 11t-11 26v34q-31 -34 -76 -56.5t-96 -22.5q-154 0 -154 154v308q0 15 11 26t27 11q15 0 26 -11t11 -26v-285q0 -60 27.5 -85t80.5 -25q42 0 81.5 21t61.5 52v322q0 15 11 26t26 11q16 0 27 -11zM276 682
l-80 -105q-4 -7 -16 -7q-9 0 -15.5 6t-6.5 16q0 5 3 11l70 104q6 8 16 13.5t20 5.5h18q10 0 20 -5.5t16 -13.5l70 -104q3 -6 3 -11q0 -10 -6.5 -16t-15.5 -6q-12 0 -16 7z" />
    <glyph glyph-name="udieresis" unicode="&#xfc;" 
d="M465 476q11 -11 11 -26v-417q0 -15 -11 -26t-26 -11q-16 0 -27 11t-11 26v34q-31 -34 -76 -56.5t-96 -22.5q-154 0 -154 154v308q0 15 11 26t27 11q15 0 26 -11t11 -26v-285q0 -60 27.5 -85t80.5 -25q42 0 81.5 21t61.5 52v322q0 15 11 26t26 11q16 0 27 -11zM139.5 600
q-13.5 14 -13.5 33t13.5 32.5t32.5 13.5t32.5 -13.5t13.5 -32.5q0 -20 -13.5 -33.5t-32.5 -13.5t-32.5 14zM345.5 600q-13.5 14 -13.5 33t14 32.5t33 13.5t32.5 -13.5t13.5 -32.5t-13.5 -33t-32.5 -14q-20 0 -33.5 14z" />
    <glyph glyph-name="yacute" unicode="&#xfd;" horiz-adv-x="490" 
d="M59.5 -137.5q10.5 9.5 25.5 9.5l16 -1q26 0 43 11t29 40l32 73l-182 440q-3 8 -3 14q0 16 10.5 27t26.5 11q12 0 21.5 -6.5t13.5 -16.5l153 -377l152 377q4 10 14 16.5t21 6.5q16 0 27 -11t11 -27q0 -7 -3 -15l-222 -532q-21 -51 -56.5 -74t-85.5 -24q-14 0 -22 2
q-14 1 -23 10.5t-9 22.5q0 14 10.5 23.5zM252 572q-8 0 -14 6t-6 14q0 9 7 14l114 111q7 7 18 7q10 0 17.5 -7t7.5 -18q0 -12 -9 -19l-121 -103q-5 -5 -14 -5z" />
    <glyph glyph-name="thorn" unicode="&#xfe;" horiz-adv-x="574" 
d="M150 -151q0 -15 -11 -26t-26 -11q-16 0 -27 11t-11 26v785q0 15 11 26t26 11q16 0 27 -11t11 -26v-223q27 38 70 61t93 23q63 0 112 -30.5t76 -88t27 -134.5t-27 -134.5t-76 -88.5t-112 -31q-49 0 -91.5 22t-71.5 63v-224zM407 376q-42 52 -113 52q-43 0 -83.5 -22.5
t-60.5 -54.5v-218q20 -33 60.5 -55.5t83.5 -22.5q71 0 113 52.5t42 134.5t-42 134z" />
    <glyph glyph-name="ydieresis" unicode="&#xff;" horiz-adv-x="490" 
d="M59.5 -137.5q10.5 9.5 25.5 9.5l16 -1q26 0 43 11t29 40l32 73l-182 440q-3 8 -3 14q0 16 10.5 27t26.5 11q12 0 21.5 -6.5t13.5 -16.5l153 -377l152 377q4 10 14 16.5t21 6.5q16 0 27 -11t11 -27q0 -7 -3 -15l-222 -532q-21 -51 -56.5 -74t-85.5 -24q-14 0 -22 2
q-14 1 -23 10.5t-9 22.5q0 14 10.5 23.5zM109.5 600q-13.5 14 -13.5 33t13.5 32.5t32.5 13.5t32.5 -13.5t13.5 -32.5q0 -20 -13.5 -33.5t-32.5 -13.5t-32.5 14zM315.5 600q-13.5 14 -13.5 33t14 32.5t33 13.5t32.5 -13.5t13.5 -32.5t-13.5 -33t-32.5 -14q-20 0 -33.5 14z
" />
    <glyph glyph-name="Amacron" unicode="&#x100;" horiz-adv-x="658" 
d="M630 39q0 -18 -12.5 -30.5t-29.5 -12.5q-13 0 -24 7.5t-16 19.5l-48 125h-343l-48 -125q-4 -12 -14.5 -19.5t-24.5 -7.5q-18 0 -30.5 12.5t-12.5 29.5q0 5 4 17l230 570q8 21 26.5 33.5t41.5 12.5t41 -12.5t26 -33.5l231 -570q3 -15 3 -16zM186 222h286l-143 371z
M178 746q-7 7 -7 17t7 17t17 7h267q10 0 17 -7t7 -17t-7 -17t-17 -7h-267q-10 0 -17 7z" />
    <glyph glyph-name="amacron" unicode="&#x101;" horiz-adv-x="527" 
d="M400 455q52 -40 52 -123v-299q0 -15 -11 -26t-27 -11q-15 0 -26 11t-11 26v22q-28 -33 -69 -50t-91 -17q-43 0 -81.5 18.5t-63 55t-24.5 86.5q0 51 24.5 87t63 54t81.5 18q103 0 160 -66v87q0 48 -34 75t-88 27q-37 0 -67.5 -11.5t-58.5 -36.5q-10 -6 -20 -6q-13 0 -22 9
t-9 22q0 7 4 14t9 11q72 63 174 63q83 0 135 -40zM320.5 57.5q35.5 15.5 56.5 44.5v91q-21 29 -56.5 44.5t-76.5 15.5q-52 0 -85.5 -29.5t-33.5 -76.5q0 -46 33.5 -75.5t85.5 -29.5q41 0 76.5 15.5zM115 599q-7 7 -7 17t7 17t17 7h267q10 0 17 -7t7 -17t-7 -17t-17 -7h-267
q-10 0 -17 7z" />
    <glyph glyph-name="Abreve" unicode="&#x102;" horiz-adv-x="658" 
d="M630 39q0 -18 -12.5 -30.5t-29.5 -12.5q-13 0 -24 7.5t-16 19.5l-48 125h-343l-48 -125q-4 -12 -14.5 -19.5t-24.5 -7.5q-18 0 -30.5 12.5t-12.5 29.5q0 5 4 17l230 570q8 21 26.5 33.5t41.5 12.5t41 -12.5t26 -33.5l231 -570q3 -15 3 -16zM186 222h286l-143 371z
M241 735.5q-42 18.5 -74 53.5q-7 7 -7 17t7 17t17 7q13 0 18 -8q52 -57 127 -57q37 0 69.5 15t56.5 42q6 8 18 8q10 0 17 -7t7 -17q0 -8 -7 -17q-31 -35 -72 -53.5t-89 -18.5q-46 0 -88 18.5z" />
    <glyph glyph-name="abreve" unicode="&#x103;" horiz-adv-x="527" 
d="M400 455q52 -40 52 -123v-299q0 -15 -11 -26t-27 -11q-15 0 -26 11t-11 26v22q-28 -33 -69 -50t-91 -17q-43 0 -81.5 18.5t-63 55t-24.5 86.5q0 51 24.5 87t63 54t81.5 18q103 0 160 -66v87q0 48 -34 75t-88 27q-37 0 -67.5 -11.5t-58.5 -36.5q-10 -6 -20 -6q-13 0 -22 9
t-9 22q0 7 4 14t9 11q72 63 174 63q83 0 135 -40zM320.5 57.5q35.5 15.5 56.5 44.5v91q-21 29 -56.5 44.5t-76.5 15.5q-52 0 -85.5 -29.5t-33.5 -76.5q0 -46 33.5 -75.5t85.5 -29.5q41 0 76.5 15.5zM178 588.5q-42 18.5 -74 53.5q-7 7 -7 17t7 17t17 7q13 0 18 -8
q52 -57 127 -57q37 0 69.5 15t56.5 42q6 8 18 8q10 0 17 -7t7 -17q0 -8 -7 -17q-31 -35 -72 -53.5t-89 -18.5q-46 0 -88 18.5z" />
    <glyph glyph-name="Aogonek" unicode="&#x104;" horiz-adv-x="658" 
d="M626.5 -135q7.5 -7 7.5 -18q0 -9 -5.5 -15.5t-10.5 -8.5q-25 -9 -52 -9q-40 0 -69 19.5t-29 55.5q0 33 29.5 62t74.5 48q-18 6 -24 24l-48 125h-343l-48 -125q-4 -12 -14.5 -19.5t-24.5 -7.5q-18 0 -30.5 12.5t-12.5 29.5q0 5 4 17l230 570q8 21 26.5 33.5t41.5 12.5
t41 -12.5t26 -33.5l231 -570q3 -15 3 -16q0 -16 -11 -29q5 0 5.5 -2t-3.5 -4q-42 -29 -61.5 -51t-19.5 -47q0 -18 12 -28.5t30 -10.5q9 0 16.5 2.5t10.5 2.5q10 0 17.5 -7zM186 222h286l-143 371z" />
    <glyph glyph-name="aogonek" unicode="&#x105;" horiz-adv-x="527" 
d="M452 33q0 -13 -10 -25q1 -1 -3 -4q-42 -29 -61.5 -51t-19.5 -47q0 -18 12 -28.5t30 -10.5q9 0 16.5 2.5t10.5 2.5q10 0 17.5 -7t7.5 -18q0 -9 -5.5 -15.5t-10.5 -8.5q-25 -9 -52 -9q-40 0 -69 19.5t-29 55.5q0 34 31 63.5t78 48.5q-18 11 -18 32v22q-28 -33 -69 -50
t-91 -17q-43 0 -81.5 18.5t-63 55t-24.5 86.5q0 51 24.5 87t63 54t81.5 18q103 0 160 -66v87q0 48 -34 75t-88 27q-37 0 -67.5 -11.5t-58.5 -36.5q-10 -6 -20 -6q-13 0 -22 9t-9 22q0 7 4 14t9 11q72 63 174 63q83 0 135 -40t52 -123v-299zM320.5 57.5q35.5 15.5 56.5 44.5
v91q-21 29 -56.5 44.5t-76.5 15.5q-52 0 -85.5 -29.5t-33.5 -76.5q0 -46 33.5 -75.5t85.5 -29.5q41 0 76.5 15.5z" />
    <glyph glyph-name="Cacute" unicode="&#x106;" horiz-adv-x="670" 
d="M219 31.5q-78 43.5 -123 122.5t-45 179t45 179t123 122.5t172 43.5q139 0 229 -97q10 -10 10 -27q0 -16 -11.5 -27.5t-27.5 -11.5q-19 0 -30 13q-32 36 -76 56t-94 20q-71 0 -129 -34.5t-91.5 -96.5t-33.5 -140t33.5 -139.5t91.5 -96.5t129 -35q50 0 94.5 20t75.5 56
q11 13 30 13q16 0 27.5 -11.5t11.5 -27.5q0 -17 -10 -27q-45 -47 -101 -72t-128 -25q-94 0 -172 43.5zM398 719q-8 0 -14 6t-6 14q0 9 7 14l114 111q7 7 18 7q10 0 17.5 -7t7.5 -18q0 -12 -9 -19l-121 -103q-5 -5 -14 -5z" />
    <glyph glyph-name="cacute" unicode="&#x107;" horiz-adv-x="495" 
d="M77.5 371q30.5 58 85 91t125.5 33q50 0 87.5 -15.5t67.5 -44.5q11 -11 11 -25t-10 -24t-24 -10q-13 0 -22 9q-43 43 -106 43q-76 0 -121.5 -52t-45.5 -134t45.5 -134.5t121.5 -52.5q63 0 105 43q9 9 23 9t24 -10t10 -24q0 -7 -3 -14t-8 -11q-30 -29 -67.5 -44.5
t-87.5 -15.5q-71 0 -125.5 33t-85 91t-30.5 130q0 71 30.5 129zM293 572q-8 0 -14 6t-6 14q0 9 7 14l114 111q7 7 18 7q10 0 17.5 -7t7.5 -18q0 -12 -9 -19l-121 -103q-5 -5 -14 -5z" />
    <glyph glyph-name="Ccircumflex" unicode="&#x108;" horiz-adv-x="670" 
d="M219 31.5q-78 43.5 -123 122.5t-45 179t45 179t123 122.5t172 43.5q139 0 229 -97q10 -10 10 -27q0 -16 -11.5 -27.5t-27.5 -11.5q-19 0 -30 13q-32 36 -76 56t-94 20q-71 0 -129 -34.5t-91.5 -96.5t-33.5 -140t33.5 -139.5t91.5 -96.5t129 -35q50 0 94.5 20t75.5 56
q11 13 30 13q16 0 27.5 -11.5t11.5 -27.5q0 -17 -10 -27q-45 -47 -101 -72t-128 -25q-94 0 -172 43.5zM392 829l-80 -105q-4 -7 -16 -7q-9 0 -15.5 6t-6.5 16q0 5 3 11l70 104q6 8 16 13.5t20 5.5h18q10 0 20 -5.5t16 -13.5l70 -104q3 -6 3 -11q0 -10 -6.5 -16t-15.5 -6
q-12 0 -16 7z" />
    <glyph glyph-name="ccircumflex" unicode="&#x109;" horiz-adv-x="495" 
d="M77.5 371q30.5 58 85 91t125.5 33q50 0 87.5 -15.5t67.5 -44.5q11 -11 11 -25t-10 -24t-24 -10q-13 0 -22 9q-43 43 -106 43q-76 0 -121.5 -52t-45.5 -134t45.5 -134.5t121.5 -52.5q63 0 105 43q9 9 23 9t24 -10t10 -24q0 -7 -3 -14t-8 -11q-30 -29 -67.5 -44.5
t-87.5 -15.5q-71 0 -125.5 33t-85 91t-30.5 130q0 71 30.5 129zM287 682l-80 -105q-4 -7 -16 -7q-9 0 -15.5 6t-6.5 16q0 5 3 11l70 104q6 8 16 13.5t20 5.5h18q10 0 20 -5.5t16 -13.5l70 -104q3 -6 3 -11q0 -10 -6.5 -16t-15.5 -6q-12 0 -16 7z" />
    <glyph glyph-name="Cdotaccent" unicode="&#x10a;" horiz-adv-x="670" 
d="M219 31.5q-78 43.5 -123 122.5t-45 179t45 179t123 122.5t172 43.5q139 0 229 -97q10 -10 10 -27q0 -16 -11.5 -27.5t-27.5 -11.5q-19 0 -30 13q-32 36 -76 56t-94 20q-71 0 -129 -34.5t-91.5 -96.5t-33.5 -140t33.5 -139.5t91.5 -96.5t129 -35q50 0 94.5 20t75.5 56
q11 13 30 13q16 0 27.5 -11.5t11.5 -27.5q0 -17 -10 -27q-45 -47 -101 -72t-128 -25q-94 0 -172 43.5zM358 811q14 14 33 14t32.5 -13.5t13.5 -33.5t-13.5 -33.5t-32.5 -13.5t-33 14t-14 33t14 33z" />
    <glyph glyph-name="cdotaccent" unicode="&#x10b;" horiz-adv-x="495" 
d="M77.5 371q30.5 58 85 91t125.5 33q50 0 87.5 -15.5t67.5 -44.5q11 -11 11 -25t-10 -24t-24 -10q-13 0 -22 9q-43 43 -106 43q-76 0 -121.5 -52t-45.5 -134t45.5 -134.5t121.5 -52.5q63 0 105 43q9 9 23 9t24 -10t10 -24q0 -7 -3 -14t-8 -11q-30 -29 -67.5 -44.5
t-87.5 -15.5q-71 0 -125.5 33t-85 91t-30.5 130q0 71 30.5 129zM253 664q14 14 33 14t32.5 -13.5t13.5 -33.5t-13.5 -33.5t-32.5 -13.5t-33 14t-14 33t14 33z" />
    <glyph glyph-name="Ccaron" unicode="&#x10c;" horiz-adv-x="670" 
d="M219 31.5q-78 43.5 -123 122.5t-45 179t45 179t123 122.5t172 43.5q139 0 229 -97q10 -10 10 -27q0 -16 -11.5 -27.5t-27.5 -11.5q-19 0 -30 13q-32 36 -76 56t-94 20q-71 0 -129 -34.5t-91.5 -96.5t-33.5 -140t33.5 -139.5t91.5 -96.5t129 -35q50 0 94.5 20t75.5 56
q11 13 30 13q16 0 27.5 -11.5t11.5 -27.5q0 -17 -10 -27q-45 -47 -101 -72t-128 -25q-94 0 -172 43.5zM500.5 867q6.5 -6 6.5 -16q0 -6 -3 -11l-70 -104q-6 -9 -15.5 -14t-20.5 -5h-18q-11 0 -20.5 5t-15.5 14l-70 104q-3 5 -3 11q0 10 6.5 16t15.5 6q11 0 16 -8l80 -104
l80 104q5 8 16 8q9 0 15.5 -6z" />
    <glyph glyph-name="ccaron" unicode="&#x10d;" horiz-adv-x="495" 
d="M77.5 371q30.5 58 85 91t125.5 33q50 0 87.5 -15.5t67.5 -44.5q11 -11 11 -25t-10 -24t-24 -10q-13 0 -22 9q-43 43 -106 43q-76 0 -121.5 -52t-45.5 -134t45.5 -134.5t121.5 -52.5q63 0 105 43q9 9 23 9t24 -10t10 -24q0 -7 -3 -14t-8 -11q-30 -29 -67.5 -44.5
t-87.5 -15.5q-71 0 -125.5 33t-85 91t-30.5 130q0 71 30.5 129zM395.5 720q6.5 -6 6.5 -16q0 -6 -3 -11l-70 -104q-6 -9 -15.5 -14t-20.5 -5h-18q-11 0 -20.5 5t-15.5 14l-70 104q-3 5 -3 11q0 10 6.5 16t15.5 6q11 0 16 -8l80 -104l80 104q5 8 16 8q9 0 15.5 -6z" />
    <glyph glyph-name="Dcaron" unicode="&#x10e;" horiz-adv-x="700" 
d="M89.5 11.5q-11.5 11.5 -11.5 32.5v579q0 21 11.5 32.5t32.5 11.5h184q101 0 179 -43.5t120.5 -120t42.5 -170.5q0 -95 -42.5 -170.5t-120.5 -119t-179 -43.5h-184q-21 0 -32.5 11.5zM306 74q79 0 137 34.5t88.5 93.5t30.5 131q0 73 -30 132t-88 93.5t-138 34.5h-145v-519
h145zM461.5 867q6.5 -6 6.5 -16q0 -6 -3 -11l-70 -104q-6 -9 -15.5 -14t-20.5 -5h-18q-11 0 -20.5 5t-15.5 14l-70 104q-3 5 -3 11q0 10 6.5 16t15.5 6q11 0 16 -8l80 -104l80 104q5 8 16 8q9 0 15.5 -6z" />
    <glyph glyph-name="dcaron" unicode="&#x10f;" horiz-adv-x="644" 
d="M489 660q11 -11 11 -26v-601q0 -15 -11 -26t-27 -11q-15 0 -26 11t-11 26v39q-28 -38 -71 -61t-92 -23q-63 0 -111.5 30.5t-76 88t-27.5 134.5q0 76 27 133.5t76 89t112 31.5q48 0 90.5 -22.5t72.5 -63.5v225q0 15 11 26t26 11q16 0 27 -11zM364 77q40 22 61 54v219
q-21 33 -61.5 55.5t-83.5 22.5q-71 0 -113 -52.5t-42 -134.5t42 -134t113 -52q44 0 84 22zM557.5 486q-6.5 6 -6.5 15q0 7 11 18q16 15 27 35t13 37q-2 -2 -11 -2q-18 0 -30 12.5t-12 31.5q0 20 13.5 33.5t32.5 13.5q22 0 37.5 -18t15.5 -49q0 -36 -17 -69.5t-45 -57.5
q-8 -6 -14 -6q-8 0 -14.5 6z" />
    <glyph glyph-name="Dcroat" unicode="&#x110;" horiz-adv-x="728" 
d="M513 623.5q78 -43.5 120.5 -120t42.5 -170.5q0 -95 -42.5 -170.5t-120.5 -119t-179 -43.5h-184q-21 0 -32.5 11.5t-11.5 32.5v254h-68q-13 0 -22.5 9.5t-9.5 22.5t9.5 22t22.5 9h68v262q0 21 11.5 32.5t32.5 11.5h184q101 0 179 -43.5zM471 108.5q58 34.5 88.5 93.5
t30.5 131q0 73 -30 132t-88 93.5t-138 34.5h-145v-232h142q13 0 22.5 -9t9.5 -22t-9.5 -22.5t-22.5 -9.5h-142v-224h145q79 0 137 34.5z" />
    <glyph glyph-name="dcroat" unicode="&#x111;" horiz-adv-x="577" 
d="M566 576q7 -7 7 -17t-7 -17t-17 -7h-49v-502q0 -15 -11 -26t-27 -11q-15 0 -26 11t-11 26v39q-28 -38 -71 -61t-92 -23q-63 0 -111.5 30.5t-76 88t-27.5 134.5q0 76 27 133.5t76 89t112 31.5q48 0 90.5 -22.5t72.5 -63.5v126h-137q-10 0 -17 7t-7 17t7 17t17 7h137v51
q0 15 11 26t26 11q16 0 27 -11t11 -26v-51h49q10 0 17 -7zM364 77q40 22 61 54v219q-21 33 -61.5 55.5t-83.5 22.5q-71 0 -113 -52.5t-42 -134.5t42 -134t113 -52q44 0 84 22z" />
    <glyph glyph-name="Emacron" unicode="&#x112;" horiz-adv-x="569" 
d="M89.5 11.5q-11.5 11.5 -11.5 32.5v579q0 21 11.5 32.5t32.5 11.5h360q15 0 26.5 -11t11.5 -26t-11.5 -26t-26.5 -11h-321v-215h314q15 0 26.5 -11t11.5 -26t-11.5 -26t-26.5 -11h-314v-230h321q15 0 26.5 -11t11.5 -26t-11.5 -26t-26.5 -11h-360q-21 0 -32.5 11.5z
M151 746q-7 7 -7 17t7 17t17 7h267q10 0 17 -7t7 -17t-7 -17t-17 -7h-267q-10 0 -17 7z" />
    <glyph glyph-name="emacron" unicode="&#x113;" horiz-adv-x="563" 
d="M78 369q31 58 85 92t122 34q70 0 123 -33t81 -88t28 -119q0 -18 -11.5 -28t-32.5 -10h-347q5 -71 52 -119t122 -48q72 0 130 46q7 4 17 4q13 0 22 -8.5t9 -21.5q0 -15 -13 -25q-74 -57 -172 -57q-71 0 -127 32t-87.5 90t-31.5 132q0 69 31 127zM200 409
q-35 -24 -53.5 -61t-20.5 -76h317q-1 39 -18.5 76t-53 61t-87.5 24q-49 0 -84 -24zM133 599q-7 7 -7 17t7 17t17 7h267q10 0 17 -7t7 -17t-7 -17t-17 -7h-267q-10 0 -17 7z" />
    <glyph glyph-name="Ebreve" unicode="&#x114;" horiz-adv-x="569" 
d="M89.5 11.5q-11.5 11.5 -11.5 32.5v579q0 21 11.5 32.5t32.5 11.5h360q15 0 26.5 -11t11.5 -26t-11.5 -26t-26.5 -11h-321v-215h314q15 0 26.5 -11t11.5 -26t-11.5 -26t-26.5 -11h-314v-230h321q15 0 26.5 -11t11.5 -26t-11.5 -26t-26.5 -11h-360q-21 0 -32.5 11.5z
M214 735.5q-42 18.5 -74 53.5q-7 7 -7 17t7 17t17 7q13 0 18 -8q52 -57 127 -57q37 0 69.5 15t56.5 42q6 8 18 8q10 0 17 -7t7 -17q0 -8 -7 -17q-31 -35 -72 -53.5t-89 -18.5q-46 0 -88 18.5z" />
    <glyph glyph-name="ebreve" unicode="&#x115;" horiz-adv-x="563" 
d="M78 369q31 58 85 92t122 34q70 0 123 -33t81 -88t28 -119q0 -18 -11.5 -28t-32.5 -10h-347q5 -71 52 -119t122 -48q72 0 130 46q7 4 17 4q13 0 22 -8.5t9 -21.5q0 -15 -13 -25q-74 -57 -172 -57q-71 0 -127 32t-87.5 90t-31.5 132q0 69 31 127zM200 409
q-35 -24 -53.5 -61t-20.5 -76h317q-1 39 -18.5 76t-53 61t-87.5 24q-49 0 -84 -24zM196 588.5q-42 18.5 -74 53.5q-7 7 -7 17t7 17t17 7q13 0 18 -8q52 -57 127 -57q37 0 69.5 15t56.5 42q6 8 18 8q10 0 17 -7t7 -17q0 -8 -7 -17q-31 -35 -72 -53.5t-89 -18.5
q-46 0 -88 18.5z" />
    <glyph glyph-name="Edotaccent" unicode="&#x116;" horiz-adv-x="569" 
d="M89.5 11.5q-11.5 11.5 -11.5 32.5v579q0 21 11.5 32.5t32.5 11.5h360q15 0 26.5 -11t11.5 -26t-11.5 -26t-26.5 -11h-321v-215h314q15 0 26.5 -11t11.5 -26t-11.5 -26t-26.5 -11h-314v-230h321q15 0 26.5 -11t11.5 -26t-11.5 -26t-26.5 -11h-360q-21 0 -32.5 11.5z
M269 811q14 14 33 14t32.5 -13.5t13.5 -33.5t-13.5 -33.5t-32.5 -13.5t-33 14t-14 33t14 33z" />
    <glyph glyph-name="edotaccent" unicode="&#x117;" horiz-adv-x="563" 
d="M78 369q31 58 85 92t122 34q70 0 123 -33t81 -88t28 -119q0 -18 -11.5 -28t-32.5 -10h-347q5 -71 52 -119t122 -48q72 0 130 46q7 4 17 4q13 0 22 -8.5t9 -21.5q0 -15 -13 -25q-74 -57 -172 -57q-71 0 -127 32t-87.5 90t-31.5 132q0 69 31 127zM200 409
q-35 -24 -53.5 -61t-20.5 -76h317q-1 39 -18.5 76t-53 61t-87.5 24q-49 0 -84 -24zM251 664q14 14 33 14t32.5 -13.5t13.5 -33.5t-13.5 -33.5t-32.5 -13.5t-33 14t-14 33t14 33z" />
    <glyph glyph-name="Eogonek" unicode="&#x118;" horiz-adv-x="569" 
d="M505 8q1 -1 -3 -4q-42 -29 -61.5 -51t-19.5 -47q0 -18 12 -28.5t30 -10.5q9 0 16.5 2.5t10.5 2.5q10 0 17.5 -7t7.5 -18q0 -9 -5.5 -15.5t-10.5 -8.5q-25 -9 -52 -9q-40 0 -69 19.5t-29 55.5q0 34 30 63t76 48h-333q-21 0 -32.5 11.5t-11.5 32.5v579q0 21 11.5 32.5
t32.5 11.5h360q15 0 26.5 -11t11.5 -26t-11.5 -26t-26.5 -11h-321v-215h314q15 0 26.5 -11t11.5 -26t-11.5 -26t-26.5 -11h-314v-230h321q15 0 26.5 -11t11.5 -26q0 -17 -15 -29z" />
    <glyph glyph-name="eogonek" unicode="&#x119;" horiz-adv-x="563" 
d="M166 20q-56 32 -87.5 90t-31.5 132q0 69 31 127t85 92t122 34q70 0 123 -33t81 -88t28 -119q0 -18 -12 -28t-34 -10h-345q5 -71 52 -119t122 -48q72 0 130 46q8 5 17 5q13 0 22 -9t9 -22q0 -14 -11 -23q-47 -43 -70 -76t-23 -60q0 -21 12 -32.5t31 -11.5q9 0 18 3
q11 2 21 -5.5t10 -19.5q0 -8 -5 -15t-13 -9q-24 -7 -46 -7q-40 0 -69 19.5t-29 55.5q0 29 21 58t54 53q-39 -12 -86 -12q-71 0 -127 32zM200 409q-35 -24 -53.5 -61t-20.5 -76h317q-1 39 -18.5 76t-53 61t-87.5 24q-49 0 -84 -24z" />
    <glyph glyph-name="Ecaron" unicode="&#x11a;" horiz-adv-x="569" 
d="M89.5 11.5q-11.5 11.5 -11.5 32.5v579q0 21 11.5 32.5t32.5 11.5h360q15 0 26.5 -11t11.5 -26t-11.5 -26t-26.5 -11h-321v-215h314q15 0 26.5 -11t11.5 -26t-11.5 -26t-26.5 -11h-314v-230h321q15 0 26.5 -11t11.5 -26t-11.5 -26t-26.5 -11h-360q-21 0 -32.5 11.5z
M411.5 867q6.5 -6 6.5 -16q0 -6 -3 -11l-70 -104q-6 -9 -15.5 -14t-20.5 -5h-18q-11 0 -20.5 5t-15.5 14l-70 104q-3 5 -3 11q0 10 6.5 16t15.5 6q11 0 16 -8l80 -104l80 104q5 8 16 8q9 0 15.5 -6z" />
    <glyph glyph-name="ecaron" unicode="&#x11b;" horiz-adv-x="563" 
d="M78 369q31 58 85 92t122 34q70 0 123 -33t81 -88t28 -119q0 -18 -11.5 -28t-32.5 -10h-347q5 -71 52 -119t122 -48q72 0 130 46q7 4 17 4q13 0 22 -8.5t9 -21.5q0 -15 -13 -25q-74 -57 -172 -57q-71 0 -127 32t-87.5 90t-31.5 132q0 69 31 127zM200 409
q-35 -24 -53.5 -61t-20.5 -76h317q-1 39 -18.5 76t-53 61t-87.5 24q-49 0 -84 -24zM393.5 720q6.5 -6 6.5 -16q0 -6 -3 -11l-70 -104q-6 -9 -15.5 -14t-20.5 -5h-18q-11 0 -20.5 5t-15.5 14l-70 104q-3 5 -3 11q0 10 6.5 16t15.5 6q11 0 16 -8l80 -104l80 104q5 8 16 8
q9 0 15.5 -6z" />
    <glyph glyph-name="Gcircumflex" unicode="&#x11c;" horiz-adv-x="713" 
d="M644.5 331.5q11.5 -11.5 11.5 -33.5v-163q0 -18 -5 -31t-17 -24q-48 -44 -109 -68.5t-131 -24.5q-95 0 -173.5 43.5t-124 122.5t-45.5 180t45.5 179.5t124 122t173.5 43.5q138 0 230 -92q11 -9 11 -27q0 -16 -11 -27t-27 -11q-17 0 -28 11q-34 34 -79 53t-96 19
q-72 0 -131 -34.5t-92.5 -96.5t-33.5 -140t33.5 -140t92.5 -97t131 -35q55 0 102.5 21.5t76.5 50.5v136h-196q-15 0 -26 11t-11 26t11 26t26 11h235q21 0 32.5 -11.5zM394 829l-80 -105q-4 -7 -16 -7q-9 0 -15.5 6t-6.5 16q0 5 3 11l70 104q6 8 16 13.5t20 5.5h18
q10 0 20 -5.5t16 -13.5l70 -104q3 -6 3 -11q0 -10 -6.5 -16t-15.5 -6q-12 0 -16 7z" />
    <glyph glyph-name="gcircumflex" unicode="&#x11d;" horiz-adv-x="574" 
d="M488 476q11 -11 11 -26v-436q0 -111 -65 -160.5t-165 -49.5q-56 0 -96.5 12t-78.5 43q-13 11 -13 26q0 13 10 23t23 10q10 0 19 -7q28 -24 60.5 -34.5t75.5 -10.5q67 0 111 35.5t44 109.5v68q-28 -38 -70.5 -61.5t-91.5 -23.5q-63 0 -111.5 30t-76 86.5t-27.5 133.5
q0 76 27 133t76 87.5t112 30.5q48 0 90 -22.5t72 -63.5v41q0 15 11 26t27 11q15 0 26 -11zM363.5 83q40.5 23 60.5 56v211q-20 33 -60 55.5t-84 22.5q-72 0 -113.5 -51t-41.5 -133q0 -81 42 -132.5t113 -51.5q43 0 83.5 23zM291 682l-80 -105q-4 -7 -16 -7q-9 0 -15.5 6
t-6.5 16q0 5 3 11l70 104q6 8 16 13.5t20 5.5h18q10 0 20 -5.5t16 -13.5l70 -104q3 -6 3 -11q0 -10 -6.5 -16t-15.5 -6q-12 0 -16 7z" />
    <glyph glyph-name="Gbreve" unicode="&#x11e;" horiz-adv-x="713" 
d="M644.5 331.5q11.5 -11.5 11.5 -33.5v-163q0 -18 -5 -31t-17 -24q-48 -44 -109 -68.5t-131 -24.5q-95 0 -173.5 43.5t-124 122.5t-45.5 180t45.5 179.5t124 122t173.5 43.5q138 0 230 -92q11 -9 11 -27q0 -16 -11 -27t-27 -11q-17 0 -28 11q-34 34 -79 53t-96 19
q-72 0 -131 -34.5t-92.5 -96.5t-33.5 -140t33.5 -140t92.5 -97t131 -35q55 0 102.5 21.5t76.5 50.5v136h-196q-15 0 -26 11t-11 26t11 26t26 11h235q21 0 32.5 -11.5zM305 735.5q-42 18.5 -74 53.5q-7 7 -7 17t7 17t17 7q13 0 18 -8q52 -57 127 -57q37 0 69.5 15t56.5 42
q6 8 18 8q10 0 17 -7t7 -17q0 -8 -7 -17q-31 -35 -72 -53.5t-89 -18.5q-46 0 -88 18.5z" />
    <glyph glyph-name="gbreve" unicode="&#x11f;" horiz-adv-x="574" 
d="M488 476q11 -11 11 -26v-436q0 -111 -65 -160.5t-165 -49.5q-56 0 -96.5 12t-78.5 43q-13 11 -13 26q0 13 10 23t23 10q10 0 19 -7q28 -24 60.5 -34.5t75.5 -10.5q67 0 111 35.5t44 109.5v68q-28 -38 -70.5 -61.5t-91.5 -23.5q-63 0 -111.5 30t-76 86.5t-27.5 133.5
q0 76 27 133t76 87.5t112 30.5q48 0 90 -22.5t72 -63.5v41q0 15 11 26t27 11q15 0 26 -11zM363.5 83q40.5 23 60.5 56v211q-20 33 -60 55.5t-84 22.5q-72 0 -113.5 -51t-41.5 -133q0 -81 42 -132.5t113 -51.5q43 0 83.5 23zM202 588.5q-42 18.5 -74 53.5q-7 7 -7 17t7 17
t17 7q13 0 18 -8q52 -57 127 -57q37 0 69.5 15t56.5 42q6 8 18 8q10 0 17 -7t7 -17q0 -8 -7 -17q-31 -35 -72 -53.5t-89 -18.5q-46 0 -88 18.5z" />
    <glyph glyph-name="Gdotaccent" unicode="&#x120;" horiz-adv-x="713" 
d="M644.5 331.5q11.5 -11.5 11.5 -33.5v-163q0 -18 -5 -31t-17 -24q-48 -44 -109 -68.5t-131 -24.5q-95 0 -173.5 43.5t-124 122.5t-45.5 180t45.5 179.5t124 122t173.5 43.5q138 0 230 -92q11 -9 11 -27q0 -16 -11 -27t-27 -11q-17 0 -28 11q-34 34 -79 53t-96 19
q-72 0 -131 -34.5t-92.5 -96.5t-33.5 -140t33.5 -140t92.5 -97t131 -35q55 0 102.5 21.5t76.5 50.5v136h-196q-15 0 -26 11t-11 26t11 26t26 11h235q21 0 32.5 -11.5zM360 811q14 14 33 14t32.5 -13.5t13.5 -33.5t-13.5 -33.5t-32.5 -13.5t-33 14t-14 33t14 33z" />
    <glyph glyph-name="gdotaccent" unicode="&#x121;" horiz-adv-x="574" 
d="M488 476q11 -11 11 -26v-436q0 -111 -65 -160.5t-165 -49.5q-56 0 -96.5 12t-78.5 43q-13 11 -13 26q0 13 10 23t23 10q10 0 19 -7q28 -24 60.5 -34.5t75.5 -10.5q67 0 111 35.5t44 109.5v68q-28 -38 -70.5 -61.5t-91.5 -23.5q-63 0 -111.5 30t-76 86.5t-27.5 133.5
q0 76 27 133t76 87.5t112 30.5q48 0 90 -22.5t72 -63.5v41q0 15 11 26t27 11q15 0 26 -11zM363.5 83q40.5 23 60.5 56v211q-20 33 -60 55.5t-84 22.5q-72 0 -113.5 -51t-41.5 -133q0 -81 42 -132.5t113 -51.5q43 0 83.5 23zM257 664q14 14 33 14t32.5 -13.5t13.5 -33.5
t-13.5 -33.5t-32.5 -13.5t-33 14t-14 33t14 33z" />
    <glyph glyph-name="uni0122" unicode="&#x122;" horiz-adv-x="713" 
d="M644.5 331.5q11.5 -11.5 11.5 -33.5v-163q0 -18 -5 -31t-17 -24q-48 -44 -109 -68.5t-131 -24.5q-95 0 -173.5 43.5t-124 122.5t-45.5 180t45.5 179.5t124 122t173.5 43.5q138 0 230 -92q11 -9 11 -27q0 -16 -11 -27t-27 -11q-17 0 -28 11q-34 34 -79 53t-96 19
q-72 0 -131 -34.5t-92.5 -96.5t-33.5 -140t33.5 -140t92.5 -97t131 -35q55 0 102.5 21.5t76.5 50.5v136h-196q-15 0 -26 11t-11 26t11 26t26 11h235q21 0 32.5 -11.5zM356.5 -265q-6.5 6 -6.5 15q0 7 11 18q16 15 27 35t13 37q-2 -2 -11 -2q-18 0 -30 12.5t-12 31.5
q0 20 13.5 33.5t32.5 13.5q22 0 37.5 -18t15.5 -49q0 -36 -17 -69.5t-45 -57.5q-8 -6 -14 -6q-8 0 -14.5 6z" />
    <glyph glyph-name="uni0123" unicode="&#x123;" horiz-adv-x="574" 
d="M250 578q-16 18 -16 48q0 36 17 69.5t45 57.5q8 6 15 6q8 0 14 -6t6 -14t-10 -18q-16 -16 -27.5 -36t-13.5 -37q4 2 12 2q18 0 30 -12.5t12 -31.5t-13.5 -32.5t-32.5 -13.5q-22 0 -38 18zM488 476q11 -11 11 -26v-436q0 -111 -65 -160.5t-165 -49.5q-56 0 -96.5 12
t-78.5 43q-13 11 -13 26q0 13 10 23t23 10q10 0 19 -7q28 -24 60.5 -34.5t75.5 -10.5q67 0 111 35.5t44 109.5v68q-28 -38 -70.5 -61.5t-91.5 -23.5q-63 0 -111.5 30t-76 86.5t-27.5 133.5q0 76 27 133t76 87.5t112 30.5q48 0 90 -22.5t72 -63.5v41q0 15 11 26t27 11
q15 0 26 -11zM363.5 83q40.5 23 60.5 56v211q-20 33 -60 55.5t-84 22.5q-72 0 -113.5 -51t-41.5 -133q0 -81 42 -132.5t113 -51.5q43 0 83.5 23z" />
    <glyph glyph-name="Hcircumflex" unicode="&#x124;" horiz-adv-x="712" 
d="M563 8q-12 12 -12 29v269h-390v-269q0 -16 -12 -28.5t-29 -12.5q-18 0 -30 12t-12 29v593q0 17 12 29t29 12t29.5 -12t12.5 -29v-250h390v250q0 17 12 29t30 12q17 0 29 -12t12 -29v-593q0 -17 -12 -29t-30 -12q-17 0 -29 12zM357 829l-80 -105q-4 -7 -16 -7
q-9 0 -15.5 6t-6.5 16q0 5 3 11l70 104q6 8 16 13.5t20 5.5h18q10 0 20 -5.5t16 -13.5l70 -104q3 -6 3 -11q0 -10 -6.5 -16t-15.5 -6q-12 0 -16 7z" />
    <glyph glyph-name="hcircumflex" unicode="&#x125;" horiz-adv-x="552" 
d="M413 7q-11 11 -11 26v285q0 60 -28 85t-81 25q-41 0 -80.5 -22t-62.5 -53v-320q0 -15 -11 -26t-26 -11q-16 0 -27 11t-11 26v601q0 15 11 26t27 11q15 0 26 -11t11 -26v-221q28 33 75 57.5t98 24.5q154 0 154 -154v-308q0 -15 -11 -26t-27 -11q-15 0 -26 11zM277 829
l-80 -105q-4 -7 -16 -7q-9 0 -15.5 6t-6.5 16q0 5 3 11l70 104q6 8 16 13.5t20 5.5h18q10 0 20 -5.5t16 -13.5l70 -104q3 -6 3 -11q0 -10 -6.5 -16t-15.5 -6q-12 0 -16 7z" />
    <glyph glyph-name="Hbar" unicode="&#x126;" horiz-adv-x="731" 
d="M720 539q7 -7 7 -17t-7 -17t-17 -7h-59v-461q0 -17 -12 -29t-30 -12q-16 0 -28.5 12.5t-12.5 28.5v269h-390v-269q0 -17 -12 -29t-29 -12q-18 0 -30 12t-12 29v461h-58q-10 0 -17 7t-7 17t7 17t17 7h58v84q0 17 12 29t29 12q18 0 30 -12t12 -29v-84h390v84q0 17 12.5 29
t29.5 12t29 -12t12 -29v-84h59q10 0 17 -7zM561 380v118h-390v-118h390z" />
    <glyph glyph-name="hbar" unicode="&#x127;" horiz-adv-x="554" 
d="M479 341v-308q0 -15 -11 -26t-27 -11q-15 0 -26 11t-11 26v285q0 60 -28 85t-81 25q-41 0 -80.5 -22t-62.5 -53v-320q0 -15 -11 -26t-26 -11q-16 0 -27 11t-11 26v502h-48q-10 0 -17 7t-7 17t7 17t17 7h48v51q0 15 11 26t27 11q15 0 26 -11t11 -26v-51h137q10 0 17 -7
t7 -17t-7 -17t-17 -7h-137v-122q28 33 75 57.5t98 24.5q154 0 154 -154z" />
    <glyph glyph-name="Itilde" unicode="&#x128;" horiz-adv-x="239" 
d="M90 8q-12 12 -12 29v593q0 17 12 29t30 12q17 0 29 -12t12 -29v-593q0 -16 -12 -28.5t-29 -12.5q-18 0 -30 12zM137.5 734.5q-15.5 13.5 -33.5 39.5q-13 20 -22.5 29.5t-24.5 9.5q-19 0 -32 -17.5t-16 -52.5q-1 -8 -7 -14t-15 -6q-10 0 -16.5 7.5t-5.5 16.5q5 52 30 83
t66 31q26 0 41.5 -13.5t33.5 -39.5q15 -21 24 -30t24 -9q18 0 31 17.5t16 52.5q1 9 7.5 14.5t14.5 5.5q10 0 17 -7t6 -17q-5 -53 -30 -83.5t-66 -30.5q-27 0 -42.5 13.5z" />
    <glyph glyph-name="itilde" unicode="&#x129;" horiz-adv-x="225" 
d="M86 7q-11 11 -11 26v417q0 15 11 26t27 11q15 0 26 -11t11 -26v-417q0 -15 -11 -26t-27 -11q-15 0 -26 11zM129.5 587.5q-15.5 13.5 -33.5 39.5q-13 20 -22.5 29.5t-24.5 9.5q-19 0 -32 -17.5t-16 -52.5q-1 -8 -7 -14t-15 -6q-10 0 -16.5 7.5t-5.5 16.5q5 52 30 83t66 31
q26 0 41.5 -13.5t33.5 -39.5q15 -21 24 -30t24 -9q18 0 31 17.5t16 52.5q1 9 7.5 14.5t14.5 5.5q10 0 17 -7t6 -17q-5 -53 -30 -83.5t-66 -30.5q-27 0 -42.5 13.5z" />
    <glyph glyph-name="Imacron" unicode="&#x12a;" horiz-adv-x="239" 
d="M90 8q-12 12 -12 29v593q0 17 12 29t30 12q17 0 29 -12t12 -29v-593q0 -16 -12 -28.5t-29 -12.5q-18 0 -30 12zM-31 746q-7 7 -7 17t7 17t17 7h267q10 0 17 -7t7 -17t-7 -17t-17 -7h-267q-10 0 -17 7z" />
    <glyph glyph-name="imacron" unicode="&#x12b;" horiz-adv-x="225" 
d="M86 7q-11 11 -11 26v417q0 15 11 26t27 11q15 0 26 -11t11 -26v-417q0 -15 -11 -26t-27 -11q-15 0 -26 11zM-39 599q-7 7 -7 17t7 17t17 7h267q10 0 17 -7t7 -17t-7 -17t-17 -7h-267q-10 0 -17 7z" />
    <glyph glyph-name="Ibreve" unicode="&#x12c;" horiz-adv-x="239" 
d="M90 8q-12 12 -12 29v593q0 17 12 29t30 12q17 0 29 -12t12 -29v-593q0 -16 -12 -28.5t-29 -12.5q-18 0 -30 12zM32 735.5q-42 18.5 -74 53.5q-7 7 -7 17t7 17t17 7q13 0 18 -8q52 -57 127 -57q37 0 69.5 15t56.5 42q6 8 18 8q10 0 17 -7t7 -17q0 -8 -7 -17
q-31 -35 -72 -53.5t-89 -18.5q-46 0 -88 18.5z" />
    <glyph glyph-name="ibreve" unicode="&#x12d;" horiz-adv-x="225" 
d="M86 7q-11 11 -11 26v417q0 15 11 26t27 11q15 0 26 -11t11 -26v-417q0 -15 -11 -26t-27 -11q-15 0 -26 11zM24 588.5q-42 18.5 -74 53.5q-7 7 -7 17t7 17t17 7q13 0 18 -8q52 -57 127 -57q37 0 69.5 15t56.5 42q6 8 18 8q10 0 17 -7t7 -17q0 -8 -7 -17q-31 -35 -72 -53.5
t-89 -18.5q-46 0 -88 18.5z" />
    <glyph glyph-name="Iogonek" unicode="&#x12e;" horiz-adv-x="239" 
d="M161 37q0 -15 -11 -28q3 -1 -2 -5q-42 -29 -61.5 -51t-19.5 -47q0 -18 12 -28.5t30 -10.5q9 0 16.5 2.5t10.5 2.5q10 0 17.5 -7t7.5 -18q0 -9 -5.5 -15.5t-10.5 -8.5q-25 -9 -52 -9q-40 0 -69 19.5t-29 55.5q0 34 30 63t76 48q-11 5 -17 15t-6 22v593q0 17 12 29t30 12
q17 0 29 -12t12 -29v-593z" />
    <glyph glyph-name="iogonek" unicode="&#x12f;" horiz-adv-x="225" 
d="M77 595.5q-15 14.5 -15 35.5t15 36t35 15q21 0 36 -15t15 -36t-15 -35.5t-36 -14.5q-20 0 -35 14.5zM139 476q11 -11 11 -26v-417q0 -13 -10 -25q1 -1 -3 -4q-42 -29 -61.5 -51t-19.5 -47q0 -18 12 -28.5t30 -10.5q9 0 16.5 2.5t10.5 2.5q10 0 17.5 -7t7.5 -18
q0 -9 -5.5 -15.5t-10.5 -8.5q-25 -9 -52 -9q-40 0 -69 19.5t-29 55.5q0 34 31 63.5t78 48.5q-18 11 -18 32v417q0 15 11 26t27 11q15 0 26 -11z" />
    <glyph glyph-name="Idotaccent" unicode="&#x130;" horiz-adv-x="239" 
d="M90 8q-12 12 -12 29v593q0 17 12 29t30 12q17 0 29 -12t12 -29v-593q0 -16 -12 -28.5t-29 -12.5q-18 0 -30 12zM87 811q14 14 33 14t32.5 -13.5t13.5 -33.5t-13.5 -33.5t-32.5 -13.5t-33 14t-14 33t14 33z" />
    <glyph glyph-name="dotlessi" unicode="&#x131;" horiz-adv-x="225" 
d="M86 7q-11 11 -11 26v417q0 15 11 26t27 11q15 0 26 -11t11 -26v-417q0 -15 -11 -26t-27 -11q-15 0 -26 11z" />
    <glyph glyph-name="IJ" unicode="&#x132;" horiz-adv-x="714" 
d="M90 8q-12 12 -12 29v593q0 17 12 29t30 12q17 0 29 -12t12 -29v-593q0 -16 -12 -28.5t-29 -12.5q-18 0 -30 12zM258 73q0 16 11.5 27t27.5 11q11 0 22 -7q44 -42 100 -42q61 0 97.5 38.5t36.5 101.5v428q0 17 12 29t29 12t29.5 -12t12.5 -29v-429q0 -104 -59 -158.5
t-153 -54.5q-91 0 -150 55q-16 11 -16 30z" />
    <glyph glyph-name="ij" unicode="&#x133;" horiz-adv-x="450" 
d="M77 595.5q-15 14.5 -15 35.5t15 36t35 15q21 0 36 -15t15 -36t-15 -35.5t-36 -14.5q-20 0 -35 14.5zM86 7q-11 11 -11 26v417q0 15 11 26t27 11q15 0 26 -11t11 -26v-417q0 -15 -11 -26t-27 -11q-15 0 -26 11zM302 595.5q-15 14.5 -15 35.5t15 36t35 15q21 0 36 -15
t15 -36t-15 -35.5t-36 -14.5q-20 0 -35 14.5zM209 -194q-12 1 -21 10t-9 22t8.5 23t20.5 10q2 0 6.5 -1t10.5 -1q75 0 75 84v497q0 15 11 26t27 11q15 0 26 -11t11 -26v-497q0 -71 -37 -110t-105 -39q-8 0 -24 2z" />
    <glyph glyph-name="Jcircumflex" unicode="&#x134;" horiz-adv-x="475" 
d="M19 73q0 16 11.5 27t27.5 11q11 0 22 -7q44 -42 100 -42q61 0 97.5 38.5t36.5 101.5v428q0 17 12 29t29 12t29.5 -12t12.5 -29v-429q0 -104 -59 -158.5t-153 -54.5q-91 0 -150 55q-16 11 -16 30zM358 846l-80 -105q-4 -7 -16 -7q-9 0 -15.5 6t-6.5 16q0 5 3 11l70 104
q6 8 16 13.5t20 5.5h18q10 0 20 -5.5t16 -13.5l70 -104q3 -6 3 -11q0 -10 -6.5 -16t-15.5 -6q-12 0 -16 7z" />
    <glyph glyph-name="jcircumflex" unicode="&#x135;" horiz-adv-x="225" 
d="M-16 -194q-12 1 -21 10t-9 22t8.5 23t20.5 10q2 0 6.5 -1t10.5 -1q75 0 75 84v497q0 15 11 26t27 11q15 0 26 -11t11 -26v-497q0 -71 -37 -110t-105 -39q-8 0 -24 2zM113 682l-80 -105q-4 -7 -16 -7q-9 0 -15.5 6t-6.5 16q0 5 3 11l70 104q6 8 16 13.5t20 5.5h18
q10 0 20 -5.5t16 -13.5l70 -104q3 -6 3 -11q0 -10 -6.5 -16t-15.5 -6q-12 0 -16 7z" />
    <glyph glyph-name="uni0136" unicode="&#x136;" horiz-adv-x="601" 
d="M560 36q0 -17 -11 -28.5t-27 -11.5q-18 0 -30 12l-264 289l-67 -71v-189q0 -17 -12.5 -29t-29.5 -12t-29 12t-12 29v593q0 17 12 29t29 12t29.5 -12t12.5 -29v-309l306 337q10 13 29 13q16 0 28 -11t12 -27q0 -14 -11 -27l-242 -258l266 -286q11 -11 11 -26zM272.5 -265
q-6.5 6 -6.5 15q0 7 11 18q16 15 27 35t13 37q-2 -2 -11 -2q-18 0 -30 12.5t-12 31.5q0 20 13.5 33.5t32.5 13.5q22 0 37.5 -18t15.5 -49q0 -36 -17 -69.5t-45 -57.5q-8 -6 -14 -6q-8 0 -14.5 6z" />
    <glyph glyph-name="uni0137" unicode="&#x137;" horiz-adv-x="514" 
d="M475 34q0 -16 -10.5 -27t-26.5 -11q-18 0 -29 12l-177 208l-82 -76v-107q0 -15 -11 -26t-27 -11q-15 0 -26 11t-11 26v601q0 15 11 26t27 11q15 0 26 -11t11 -26v-409l261 253q9 9 24 9q14 0 24 -10.5t10 -24.5t-10 -24l-173 -166l180 -203q9 -10 9 -25zM223.5 -265
q-6.5 6 -6.5 15q0 7 11 18q16 15 27 35t13 37q-2 -2 -11 -2q-18 0 -30 12.5t-12 31.5q0 20 13.5 33.5t32.5 13.5q22 0 37.5 -18t15.5 -49q0 -36 -17 -69.5t-45 -57.5q-8 -6 -14 -6q-8 0 -14.5 6z" />
    <glyph glyph-name="kgreenlandic" unicode="&#x138;" horiz-adv-x="514" 
d="M475 34q0 -16 -10.5 -27t-26.5 -11q-18 0 -29 12l-177 208l-82 -76v-107q0 -15 -11 -26t-27 -11q-15 0 -26 11t-11 26v417q0 15 11 26t27 11q15 0 26 -11t11 -26v-225l261 253q9 9 24 9q14 0 24 -10.5t10 -24.5t-10 -24l-173 -166l180 -203q9 -10 9 -25z" />
    <glyph glyph-name="Lacute" unicode="&#x139;" horiz-adv-x="510" 
d="M89.5 11.5q-11.5 11.5 -11.5 32.5v586q0 17 12 29t30 12q17 0 29 -12t12 -29v-556h277q15 0 26.5 -11t11.5 -26t-11.5 -26t-26.5 -11h-316q-21 0 -32.5 11.5zM127 719q-8 0 -14 6t-6 14q0 9 7 14l114 111q7 7 18 7q10 0 17.5 -7t7.5 -18q0 -12 -9 -19l-121 -103
q-5 -5 -14 -5z" />
    <glyph glyph-name="lacute" unicode="&#x13a;" horiz-adv-x="225" 
d="M86 7q-11 11 -11 26v601q0 15 11 26t27 11q15 0 26 -11t11 -26v-601q0 -15 -11 -26t-26 -11q-16 0 -27 11zM119 719q-8 0 -14 6t-6 14q0 9 7 14l114 111q7 7 18 7q10 0 17.5 -7t7.5 -18q0 -12 -9 -19l-121 -103q-5 -5 -14 -5z" />
    <glyph glyph-name="uni013B" unicode="&#x13b;" horiz-adv-x="510" 
d="M89.5 11.5q-11.5 11.5 -11.5 32.5v586q0 17 12 29t30 12q17 0 29 -12t12 -29v-556h277q15 0 26.5 -11t11.5 -26t-11.5 -26t-26.5 -11h-316q-21 0 -32.5 11.5zM237.5 -265q-6.5 6 -6.5 15q0 7 11 18q16 15 27 35t13 37q-2 -2 -11 -2q-18 0 -30 12.5t-12 31.5
q0 20 13.5 33.5t32.5 13.5q22 0 37.5 -18t15.5 -49q0 -36 -17 -69.5t-45 -57.5q-8 -6 -14 -6q-8 0 -14.5 6z" />
    <glyph glyph-name="uni013C" unicode="&#x13c;" horiz-adv-x="225" 
d="M86 7q-11 11 -11 26v601q0 15 11 26t27 11q15 0 26 -11t11 -26v-601q0 -15 -11 -26t-26 -11q-16 0 -27 11zM74.5 -265q-6.5 6 -6.5 15q0 7 11 18q16 15 27 35t13 37q-2 -2 -11 -2q-18 0 -30 12.5t-12 31.5q0 20 13.5 33.5t32.5 13.5q22 0 37.5 -18t15.5 -49
q0 -36 -17 -69.5t-45 -57.5q-8 -6 -14 -6q-8 0 -14.5 6z" />
    <glyph glyph-name="Lcaron" unicode="&#x13d;" horiz-adv-x="510" 
d="M89.5 11.5q-11.5 11.5 -11.5 32.5v586q0 17 12 29t30 12q17 0 29 -12t12 -29v-556h277q15 0 26.5 -11t11.5 -26t-11.5 -26t-26.5 -11h-316q-21 0 -32.5 11.5zM263.5 486q-6.5 6 -6.5 15q0 7 11 18q16 15 27 35t13 37q-2 -2 -11 -2q-18 0 -30 12.5t-12 31.5
q0 20 13.5 33.5t32.5 13.5q22 0 37.5 -18t15.5 -49q0 -36 -17 -69.5t-45 -57.5q-8 -6 -14 -6q-8 0 -14.5 6z" />
    <glyph glyph-name="lcaron" unicode="&#x13e;" horiz-adv-x="291" 
d="M86 7q-11 11 -11 26v601q0 15 11 26t27 11q15 0 26 -11t11 -26v-601q0 -15 -11 -26t-26 -11q-16 0 -27 11zM207.5 486q-6.5 6 -6.5 15q0 7 11 18q16 15 27 35t13 37q-2 -2 -11 -2q-18 0 -30 12.5t-12 31.5q0 20 13.5 33.5t32.5 13.5q22 0 37.5 -18t15.5 -49
q0 -36 -17 -69.5t-45 -57.5q-8 -6 -14 -6q-8 0 -14.5 6z" />
    <glyph glyph-name="Ldot" unicode="&#x13f;" horiz-adv-x="510" 
d="M89.5 11.5q-11.5 11.5 -11.5 32.5v586q0 17 12 29t30 12q17 0 29 -12t12 -29v-556h277q15 0 26.5 -11t11.5 -26t-11.5 -26t-26.5 -11h-316q-21 0 -32.5 11.5zM330.5 303q-16.5 16 -16.5 38q0 23 16.5 39t38.5 16q23 0 39 -16t16 -39q0 -22 -16.5 -38t-38.5 -16t-38.5 16z
" />
    <glyph glyph-name="ldot" unicode="&#x140;" horiz-adv-x="307" 
d="M86 7q-11 11 -11 26v601q0 15 11 26t27 11q15 0 26 -11t11 -26v-601q0 -15 -11 -26t-26 -11q-16 0 -27 11zM227.5 206q-16.5 16 -16.5 38q0 23 16.5 39t38.5 16q23 0 39 -16t16 -39q0 -22 -16.5 -38t-38.5 -16t-38.5 16z" />
    <glyph glyph-name="Lslash" unicode="&#x141;" horiz-adv-x="529" 
d="M483.5 63q11.5 -11 11.5 -26t-11.5 -26t-26.5 -11h-316q-21 0 -32.5 11.5t-11.5 32.5v227l-45 -26q-8 -4 -15 -4q-13 0 -22 9t-9 22q0 9 4.5 16t11.5 11l75 44v287q0 17 12 29t30 12q17 0 29 -12t12 -29v-239l54 31q8 5 16 5q13 0 22 -9t9 -22q0 -9 -4.5 -16t-11.5 -11
l-85 -49v-246h277q15 0 26.5 -11z" />
    <glyph glyph-name="lslash" unicode="&#x142;" horiz-adv-x="287" 
d="M272.5 416.5q7.5 -7.5 7.5 -18.5q0 -15 -13 -23l-86 -49v-293q0 -15 -11 -26t-26 -11q-16 0 -27 11t-11 26v250l-61 -35q-5 -4 -13 -4q-10 0 -18 8t-8 18q0 15 13 23l87 50v291q0 15 11 26t27 11q15 0 26 -11t11 -26v-248l60 34q5 4 13 4q11 0 18.5 -7.5z" />
    <glyph glyph-name="Nacute" unicode="&#x143;" horiz-adv-x="708" 
d="M555 1.5q-11 5.5 -18 15.5l-376 521v-501q0 -16 -12 -28.5t-29 -12.5q-18 0 -30 12t-12 29v580q0 22 16 38t38 16q28 0 44 -22l371 -509v490q0 17 12.5 29t28.5 12q18 0 30 -12t12 -29v-583q0 -21 -15 -36t-36 -15q-13 0 -24 5.5zM361 719q-8 0 -14 6t-6 14q0 9 7 14
l114 111q7 7 18 7q10 0 17.5 -7t7.5 -18q0 -12 -9 -19l-121 -103q-5 -5 -14 -5z" />
    <glyph glyph-name="nacute" unicode="&#x144;" 
d="M476 339v-306q0 -15 -11 -26t-27 -11q-15 0 -26 11t-11 26v283q0 61 -28 86.5t-80 25.5q-42 0 -81.5 -22t-61.5 -53v-320q0 -15 -11 -26t-26 -11q-16 0 -27 11t-11 26v417q0 15 11 26t26 11q16 0 27 -11t11 -26v-38q28 34 74 58.5t98 24.5q154 0 154 -156zM283 572
q-8 0 -14 6t-6 14q0 9 7 14l114 111q7 7 18 7q10 0 17.5 -7t7.5 -18q0 -12 -9 -19l-121 -103q-5 -5 -14 -5z" />
    <glyph glyph-name="uni0145" unicode="&#x145;" horiz-adv-x="708" 
d="M555 1.5q-11 5.5 -18 15.5l-376 521v-501q0 -16 -12 -28.5t-29 -12.5q-18 0 -30 12t-12 29v580q0 22 16 38t38 16q28 0 44 -22l371 -509v490q0 17 12.5 29t28.5 12q18 0 30 -12t12 -29v-583q0 -21 -15 -36t-36 -15q-13 0 -24 5.5zM311.5 -265q-6.5 6 -6.5 15q0 7 11 18
q16 15 27 35t13 37q-2 -2 -11 -2q-18 0 -30 12.5t-12 31.5q0 20 13.5 33.5t32.5 13.5q22 0 37.5 -18t15.5 -49q0 -36 -17 -69.5t-45 -57.5q-8 -6 -14 -6q-8 0 -14.5 6z" />
    <glyph glyph-name="uni0146" unicode="&#x146;" 
d="M476 339v-306q0 -15 -11 -26t-27 -11q-15 0 -26 11t-11 26v283q0 61 -28 86.5t-80 25.5q-42 0 -81.5 -22t-61.5 -53v-320q0 -15 -11 -26t-26 -11q-16 0 -27 11t-11 26v417q0 15 11 26t26 11q16 0 27 -11t11 -26v-38q28 34 74 58.5t98 24.5q154 0 154 -156zM238.5 -265
q-6.5 6 -6.5 15q0 7 11 18q16 15 27 35t13 37q-2 -2 -11 -2q-18 0 -30 12.5t-12 31.5q0 20 13.5 33.5t32.5 13.5q22 0 37.5 -18t15.5 -49q0 -36 -17 -69.5t-45 -57.5q-8 -6 -14 -6q-8 0 -14.5 6z" />
    <glyph glyph-name="Ncaron" unicode="&#x147;" horiz-adv-x="708" 
d="M555 1.5q-11 5.5 -18 15.5l-376 521v-501q0 -16 -12 -28.5t-29 -12.5q-18 0 -30 12t-12 29v580q0 22 16 38t38 16q28 0 44 -22l371 -509v490q0 17 12.5 29t28.5 12q18 0 30 -12t12 -29v-583q0 -21 -15 -36t-36 -15q-13 0 -24 5.5zM463.5 867q6.5 -6 6.5 -16q0 -6 -3 -11
l-70 -104q-6 -9 -15.5 -14t-20.5 -5h-18q-11 0 -20.5 5t-15.5 14l-70 104q-3 5 -3 11q0 10 6.5 16t15.5 6q11 0 16 -8l80 -104l80 104q5 8 16 8q9 0 15.5 -6z" />
    <glyph glyph-name="ncaron" unicode="&#x148;" 
d="M476 339v-306q0 -15 -11 -26t-27 -11q-15 0 -26 11t-11 26v283q0 61 -28 86.5t-80 25.5q-42 0 -81.5 -22t-61.5 -53v-320q0 -15 -11 -26t-26 -11q-16 0 -27 11t-11 26v417q0 15 11 26t26 11q16 0 27 -11t11 -26v-38q28 34 74 58.5t98 24.5q154 0 154 -156zM385.5 720
q6.5 -6 6.5 -16q0 -6 -3 -11l-70 -104q-6 -9 -15.5 -14t-20.5 -5h-18q-11 0 -20.5 5t-15.5 14l-70 104q-3 5 -3 11q0 10 6.5 16t15.5 6q11 0 16 -8l80 -104l80 104q5 8 16 8q9 0 15.5 -6z" />
    <glyph glyph-name="napostrophe" unicode="&#x149;" 
d="M476 339v-306q0 -15 -11 -26t-27 -11q-15 0 -26 11t-11 26v283q0 61 -28 86.5t-80 25.5q-42 0 -81.5 -22t-61.5 -53v-320q0 -15 -11 -26t-26 -11q-16 0 -27 11t-11 26v417q0 15 11 26t26 11q16 0 27 -11t11 -26v-38q28 34 74 58.5t98 24.5q154 0 154 -156zM70.5 549
q-6.5 6 -6.5 15q0 7 11 18q16 15 27 35t13 37q-2 -2 -11 -2q-18 0 -30 12.5t-12 31.5q0 20 13.5 33.5t32.5 13.5q22 0 37.5 -18t15.5 -49q0 -36 -17 -69.5t-45 -57.5q-8 -6 -14 -6q-8 0 -14.5 6z" />
    <glyph glyph-name="Eng" unicode="&#x14a;" horiz-adv-x="708" 
d="M618 659q12 -12 12 -29v-615q0 -104 -59 -157.5t-153 -53.5q-89 0 -151 55q-15 12 -15 30q0 16 11.5 27t26.5 11q13 0 23 -7q44 -42 100 -42q59 0 94 36t36 96l-382 528v-501q0 -16 -12 -28.5t-29 -12.5q-18 0 -30 12t-12 29v580q0 22 16 38t38 16q28 0 44 -22l371 -509
v490q0 17 12.5 29t28.5 12q18 0 30 -12z" />
    <glyph glyph-name="eng" unicode="&#x14b;" 
d="M476 339v-386q0 -71 -37 -110t-105 -39q-8 0 -24 2q-12 1 -21 10t-9 22t8.5 23t20.5 10q2 0 6.5 -1t10.5 -1q75 0 75 84v363q0 61 -28 86.5t-80 25.5q-42 0 -81.5 -22t-61.5 -53v-320q0 -15 -11 -26t-26 -11q-16 0 -27 11t-11 26v417q0 15 11 26t26 11q16 0 27 -11
t11 -26v-38q28 34 74 58.5t98 24.5q154 0 154 -156z" />
    <glyph glyph-name="Omacron" unicode="&#x14c;" horiz-adv-x="765" 
d="M92.5 509.5q41.5 78.5 117 123.5t172.5 45t172 -45t117 -123.5t42 -176.5t-42 -176.5t-117 -123.5t-172 -45t-172.5 45t-117 123.5t-41.5 176.5t41.5 176.5zM596.5 472.5q-30.5 61.5 -86 96.5t-128.5 35q-74 0 -129.5 -35t-85.5 -96.5t-30 -139.5q0 -77 30 -139t86 -97
t129 -35t128.5 35t86 97t30.5 139q0 78 -30.5 139.5zM230 746q-7 7 -7 17t7 17t17 7h267q10 0 17 -7t7 -17t-7 -17t-17 -7h-267q-10 0 -17 7z" />
    <glyph glyph-name="omacron" unicode="&#x14d;" horiz-adv-x="572" 
d="M160 22q-54 34 -83.5 92t-29.5 128t29.5 128t83.5 91.5t126 33.5t126 -33.5t83.5 -91.5t29.5 -128t-29.5 -128t-83.5 -92t-126 -34t-126 34zM372 80.5q36 25.5 55 68.5t19 93t-19 92.5t-55 68t-86 25.5t-86.5 -25.5t-55.5 -68t-19 -92.5t19 -93t55.5 -68.5t86.5 -25.5
t86 25.5zM135 599q-7 7 -7 17t7 17t17 7h267q10 0 17 -7t7 -17t-7 -17t-17 -7h-267q-10 0 -17 7z" />
    <glyph glyph-name="Obreve" unicode="&#x14e;" horiz-adv-x="765" 
d="M92.5 509.5q41.5 78.5 117 123.5t172.5 45t172 -45t117 -123.5t42 -176.5t-42 -176.5t-117 -123.5t-172 -45t-172.5 45t-117 123.5t-41.5 176.5t41.5 176.5zM596.5 472.5q-30.5 61.5 -86 96.5t-128.5 35q-74 0 -129.5 -35t-85.5 -96.5t-30 -139.5q0 -77 30 -139t86 -97
t129 -35t128.5 35t86 97t30.5 139q0 78 -30.5 139.5zM293 735.5q-42 18.5 -74 53.5q-7 7 -7 17t7 17t17 7q13 0 18 -8q52 -57 127 -57q37 0 69.5 15t56.5 42q6 8 18 8q10 0 17 -7t7 -17q0 -8 -7 -17q-31 -35 -72 -53.5t-89 -18.5q-46 0 -88 18.5z" />
    <glyph glyph-name="obreve" unicode="&#x14f;" horiz-adv-x="572" 
d="M160 22q-54 34 -83.5 92t-29.5 128t29.5 128t83.5 91.5t126 33.5t126 -33.5t83.5 -91.5t29.5 -128t-29.5 -128t-83.5 -92t-126 -34t-126 34zM372 80.5q36 25.5 55 68.5t19 93t-19 92.5t-55 68t-86 25.5t-86.5 -25.5t-55.5 -68t-19 -92.5t19 -93t55.5 -68.5t86.5 -25.5
t86 25.5zM198 588.5q-42 18.5 -74 53.5q-7 7 -7 17t7 17t17 7q13 0 18 -8q52 -57 127 -57q37 0 69.5 15t56.5 42q6 8 18 8q10 0 17 -7t7 -17q0 -8 -7 -17q-31 -35 -72 -53.5t-89 -18.5q-46 0 -88 18.5z" />
    <glyph glyph-name="Ohungarumlaut" unicode="&#x150;" horiz-adv-x="765" 
d="M92.5 509.5q41.5 78.5 117 123.5t172.5 45t172 -45t117 -123.5t42 -176.5t-42 -176.5t-117 -123.5t-172 -45t-172.5 45t-117 123.5t-41.5 176.5t41.5 176.5zM596.5 472.5q-30.5 61.5 -86 96.5t-128.5 35q-74 0 -129.5 -35t-85.5 -96.5t-30 -139.5q0 -77 30 -139t86 -97
t129 -35t128.5 35t86 97t30.5 139q0 78 -30.5 139.5zM300.5 722q-6.5 6 -6.5 15q0 7 4 12l75 113q9 12 22 12q11 0 18.5 -8t7.5 -19q0 -10 -5 -16l-84 -106q-8 -9 -17 -9q-8 0 -14.5 6zM442.5 722q-6.5 6 -6.5 15q0 7 4 12l75 113q9 12 22 12q11 0 18.5 -8t7.5 -19
q0 -10 -5 -16l-84 -106q-8 -9 -17 -9q-8 0 -14.5 6z" />
    <glyph glyph-name="ohungarumlaut" unicode="&#x151;" horiz-adv-x="572" 
d="M160 22q-54 34 -83.5 92t-29.5 128t29.5 128t83.5 91.5t126 33.5t126 -33.5t83.5 -91.5t29.5 -128t-29.5 -128t-83.5 -92t-126 -34t-126 34zM372 80.5q36 25.5 55 68.5t19 93t-19 92.5t-55 68t-86 25.5t-86.5 -25.5t-55.5 -68t-19 -92.5t19 -93t55.5 -68.5t86.5 -25.5
t86 25.5zM205.5 575q-6.5 6 -6.5 15q0 7 4 12l75 113q9 12 22 12q11 0 18.5 -8t7.5 -19q0 -10 -5 -16l-84 -106q-8 -9 -17 -9q-8 0 -14.5 6zM347.5 575q-6.5 6 -6.5 15q0 7 4 12l75 113q9 12 22 12q11 0 18.5 -8t7.5 -19q0 -10 -5 -16l-84 -106q-8 -9 -17 -9q-8 0 -14.5 6z
" />
    <glyph glyph-name="OE" unicode="&#x152;" horiz-adv-x="1105" 
d="M1044 63q11 -11 11 -26t-11 -26t-26 -11h-360q-22 0 -33.5 11.5t-11.5 32.5v76q-36 -63 -100.5 -97.5t-137.5 -34.5q-95 0 -169 45t-114.5 123.5t-40.5 176.5t40.5 176.5t114.5 123t169 44.5q73 0 137.5 -34t100.5 -96v76q0 21 11.5 32.5t33.5 11.5h360q15 0 26 -11
t11 -26t-11 -26t-26 -11h-322v-215h315q15 0 26 -11t11 -26t-11 -26t-26 -11h-315v-230h322q15 0 26 -11zM523.5 103.5q60.5 41.5 89.5 119.5v220q-29 78 -89.5 119t-139.5 41q-75 0 -131 -34.5t-86 -96t-30 -139.5t30 -139.5t86 -96.5t131 -35q79 0 139.5 41.5z" />
    <glyph glyph-name="oe" unicode="&#x153;" horiz-adv-x="962" 
d="M577.5 98q46.5 -48 121.5 -48q71 0 131 46q5 4 16 4q14 0 22.5 -8.5t8.5 -21.5q0 -15 -13 -25q-74 -57 -171 -57q-83 0 -133 41.5t-75 96.5q-25 -55 -72 -96.5t-127 -41.5q-72 0 -126 34t-83.5 92t-29.5 128t29.5 128t83.5 91.5t126 33.5q80 0 128.5 -42.5t71.5 -95.5
q22 52 71.5 95t126.5 43q71 0 123.5 -34t80.5 -93t28 -132q0 -9 -11.5 -14t-32.5 -5h-346q5 -71 51.5 -119zM824 348q-18 37 -53.5 61t-87.5 24q-49 0 -84 -24t-53.5 -61t-20.5 -76h318q-1 39 -19 76zM200.5 403q-36.5 -25 -56 -67.5t-19.5 -93.5q0 -52 19.5 -94.5t56 -68
t85.5 -25.5t85.5 25.5t55.5 68t19 94.5q0 51 -19 93.5t-55.5 67.5t-85.5 25t-85.5 -25z" />
    <glyph glyph-name="Racute" unicode="&#x154;" horiz-adv-x="608" 
d="M557 34q0 -14 -11.5 -26t-28.5 -12q-23 0 -35 17l-174 252h-147v-228q0 -16 -12 -28.5t-29 -12.5q-18 0 -30 12t-12 29v586q0 21 11.5 32.5t32.5 11.5h224q61 0 108.5 -24.5t74 -70.5t26.5 -106q0 -81 -45.5 -131.5t-113.5 -60.5l153 -214q8 -12 8 -26zM161 338h175
q59 0 96 36t37 92t-37 91.5t-96 35.5h-175v-255zM313 719q-8 0 -14 6t-6 14q0 9 7 14l114 111q7 7 18 7q10 0 17.5 -7t7.5 -18q0 -12 -9 -19l-121 -103q-5 -5 -14 -5z" />
    <glyph glyph-name="racute" unicode="&#x155;" horiz-adv-x="330" 
d="M307 480.5q9 -10.5 9 -25.5q0 -14 -11 -24.5t-30 -12.5q-34 -2 -71.5 -24.5t-53.5 -51.5v-309q0 -15 -11 -26t-26 -11q-16 0 -27 11t-11 26v417q0 15 11 26t26 11q16 0 27 -11t11 -26v-45q22 30 50.5 52t57.5 29q17 5 24 5q16 0 25 -10.5zM198 572q-8 0 -14 6t-6 14
q0 9 7 14l114 111q7 7 18 7q10 0 17.5 -7t7.5 -18q0 -12 -9 -19l-121 -103q-5 -5 -14 -5z" />
    <glyph glyph-name="uni0156" unicode="&#x156;" horiz-adv-x="608" 
d="M557 34q0 -14 -11.5 -26t-28.5 -12q-23 0 -35 17l-174 252h-147v-228q0 -16 -12 -28.5t-29 -12.5q-18 0 -30 12t-12 29v586q0 21 11.5 32.5t32.5 11.5h224q61 0 108.5 -24.5t74 -70.5t26.5 -106q0 -81 -45.5 -131.5t-113.5 -60.5l153 -214q8 -12 8 -26zM161 338h175
q59 0 96 36t37 92t-37 91.5t-96 35.5h-175v-255zM268.5 -265q-6.5 6 -6.5 15q0 7 11 18q16 15 27 35t13 37q-2 -2 -11 -2q-18 0 -30 12.5t-12 31.5q0 20 13.5 33.5t32.5 13.5q22 0 37.5 -18t15.5 -49q0 -36 -17 -69.5t-45 -57.5q-8 -6 -14 -6q-8 0 -14.5 6z" />
    <glyph glyph-name="uni0157" unicode="&#x157;" horiz-adv-x="330" 
d="M307 480.5q9 -10.5 9 -25.5q0 -14 -11 -24.5t-30 -12.5q-34 -2 -71.5 -24.5t-53.5 -51.5v-309q0 -15 -11 -26t-26 -11q-16 0 -27 11t-11 26v417q0 15 11 26t26 11q16 0 27 -11t11 -26v-45q22 30 50.5 52t57.5 29q17 5 24 5q16 0 25 -10.5zM76.5 -265q-6.5 6 -6.5 15
q0 7 11 18q16 15 27 35t13 37q-2 -2 -11 -2q-18 0 -30 12.5t-12 31.5q0 20 13.5 33.5t32.5 13.5q22 0 37.5 -18t15.5 -49q0 -36 -17 -69.5t-45 -57.5q-8 -6 -14 -6q-8 0 -14.5 6z" />
    <glyph glyph-name="Rcaron" unicode="&#x158;" horiz-adv-x="608" 
d="M557 34q0 -14 -11.5 -26t-28.5 -12q-23 0 -35 17l-174 252h-147v-228q0 -16 -12 -28.5t-29 -12.5q-18 0 -30 12t-12 29v586q0 21 11.5 32.5t32.5 11.5h224q61 0 108.5 -24.5t74 -70.5t26.5 -106q0 -81 -45.5 -131.5t-113.5 -60.5l153 -214q8 -12 8 -26zM161 338h175
q59 0 96 36t37 92t-37 91.5t-96 35.5h-175v-255zM415.5 867q6.5 -6 6.5 -16q0 -6 -3 -11l-70 -104q-6 -9 -15.5 -14t-20.5 -5h-18q-11 0 -20.5 5t-15.5 14l-70 104q-3 5 -3 11q0 10 6.5 16t15.5 6q11 0 16 -8l80 -104l80 104q5 8 16 8q9 0 15.5 -6z" />
    <glyph glyph-name="rcaron" unicode="&#x159;" horiz-adv-x="330" 
d="M307 480.5q9 -10.5 9 -25.5q0 -14 -11 -24.5t-30 -12.5q-34 -2 -71.5 -24.5t-53.5 -51.5v-309q0 -15 -11 -26t-26 -11q-16 0 -27 11t-11 26v417q0 15 11 26t26 11q16 0 27 -11t11 -26v-45q22 30 50.5 52t57.5 29q17 5 24 5q16 0 25 -10.5zM300.5 720q6.5 -6 6.5 -16
q0 -6 -3 -11l-70 -104q-6 -9 -15.5 -14t-20.5 -5h-18q-11 0 -20.5 5t-15.5 14l-70 104q-3 5 -3 11q0 10 6.5 16t15.5 6q11 0 16 -8l80 -104l80 104q5 8 16 8q9 0 15.5 -6z" />
    <glyph glyph-name="Sacute" unicode="&#x15a;" horiz-adv-x="586" 
d="M49 100q0 17 11.5 29t28.5 12q16 0 25 -9q81 -70 183 -70q81 0 119 34.5t38 80.5q0 37 -22.5 60.5t-55.5 36.5t-91 29q-74 19 -118.5 37t-76 54.5t-31.5 97.5q0 54 30 96t83.5 65.5t121.5 23.5q62 0 111.5 -17t94.5 -52q17 -11 17 -32q0 -16 -11.5 -28t-27.5 -12
q-13 0 -24 9q-35 29 -77.5 43.5t-88.5 14.5q-64 0 -103.5 -29.5t-39.5 -76.5q0 -31 21.5 -51.5t52.5 -32t88 -26.5q74 -20 120.5 -39.5t79.5 -59t33 -104.5q0 -52 -25 -96.5t-80.5 -72t-140.5 -27.5q-71 0 -129 21.5t-101 59.5q-15 13 -15 31zM295 719q-8 0 -14 6t-6 14
q0 9 7 14l114 111q7 7 18 7q10 0 17.5 -7t7.5 -18q0 -12 -9 -19l-121 -103q-5 -5 -14 -5z" />
    <glyph glyph-name="sacute" unicode="&#x15b;" horiz-adv-x="465" 
d="M41 72q0 14 10 23.5t23 9.5q11 0 20 -6q28 -23 63 -36.5t74 -13.5q54 0 84 22t30 58t-31 53.5t-93 32.5q-56 13 -90.5 26t-59.5 41t-25 74q0 38 21.5 69.5t62 50.5t96.5 19q93 0 160 -53q13 -11 13 -25q0 -13 -9.5 -22.5t-22.5 -9.5q-9 0 -18 7q-23 20 -54.5 31t-68.5 11
q-49 0 -78 -20t-29 -53q0 -32 29.5 -47.5t88.5 -29.5q56 -13 92.5 -27t62.5 -43.5t26 -79.5q0 -64 -50 -105t-140 -41q-103 0 -173 57q-14 9 -14 27zM233 572q-8 0 -14 6t-6 14q0 9 7 14l114 111q7 7 18 7q10 0 17.5 -7t7.5 -18q0 -12 -9 -19l-121 -103q-5 -5 -14 -5z" />
    <glyph glyph-name="Scircumflex" unicode="&#x15c;" horiz-adv-x="586" 
d="M49 100q0 17 11.5 29t28.5 12q16 0 25 -9q81 -70 183 -70q81 0 119 34.5t38 80.5q0 37 -22.5 60.5t-55.5 36.5t-91 29q-74 19 -118.5 37t-76 54.5t-31.5 97.5q0 54 30 96t83.5 65.5t121.5 23.5q62 0 111.5 -17t94.5 -52q17 -11 17 -32q0 -16 -11.5 -28t-27.5 -12
q-13 0 -24 9q-35 29 -77.5 43.5t-88.5 14.5q-64 0 -103.5 -29.5t-39.5 -76.5q0 -31 21.5 -51.5t52.5 -32t88 -26.5q74 -20 120.5 -39.5t79.5 -59t33 -104.5q0 -52 -25 -96.5t-80.5 -72t-140.5 -27.5q-71 0 -129 21.5t-101 59.5q-15 13 -15 31zM289 829l-80 -105
q-4 -7 -16 -7q-9 0 -15.5 6t-6.5 16q0 5 3 11l70 104q6 8 16 13.5t20 5.5h18q10 0 20 -5.5t16 -13.5l70 -104q3 -6 3 -11q0 -10 -6.5 -16t-15.5 -6q-12 0 -16 7z" />
    <glyph glyph-name="scircumflex" unicode="&#x15d;" horiz-adv-x="465" 
d="M41 72q0 14 10 23.5t23 9.5q11 0 20 -6q28 -23 63 -36.5t74 -13.5q54 0 84 22t30 58t-31 53.5t-93 32.5q-56 13 -90.5 26t-59.5 41t-25 74q0 38 21.5 69.5t62 50.5t96.5 19q93 0 160 -53q13 -11 13 -25q0 -13 -9.5 -22.5t-22.5 -9.5q-9 0 -18 7q-23 20 -54.5 31t-68.5 11
q-49 0 -78 -20t-29 -53q0 -32 29.5 -47.5t88.5 -29.5q56 -13 92.5 -27t62.5 -43.5t26 -79.5q0 -64 -50 -105t-140 -41q-103 0 -173 57q-14 9 -14 27zM227 682l-80 -105q-4 -7 -16 -7q-9 0 -15.5 6t-6.5 16q0 5 3 11l70 104q6 8 16 13.5t20 5.5h18q10 0 20 -5.5t16 -13.5
l70 -104q3 -6 3 -11q0 -10 -6.5 -16t-15.5 -6q-12 0 -16 7z" />
    <glyph glyph-name="uni015E" unicode="&#x15e;" horiz-adv-x="586" 
d="M516.5 90.5q-23.5 -43.5 -75.5 -71.5t-132 -31l-17 -43q16 11 37 11q29 0 47.5 -18.5t18.5 -48.5q0 -36 -30 -58t-74 -22q-26 0 -49.5 6t-40.5 16q-11 7 -11 19q0 8 6 14.5t15 6.5q6 0 11 -4q31 -19 67 -19q25 0 43 11.5t18 30.5q0 16 -9.5 25.5t-27.5 9.5t-32 -11
q-5 -5 -13 -5q-10 0 -16.5 6.5t-6.5 16.5q0 3 2 9l18 48q-122 9 -201 80q-15 13 -15 31q0 17 11.5 29t28.5 12q16 0 25 -9q81 -70 183 -70q81 0 119 34.5t38 80.5q0 37 -22.5 60.5t-55.5 36.5t-91 29q-74 19 -118.5 37t-76 54.5t-31.5 97.5q0 54 30 96t83.5 65.5t121.5 23.5
q62 0 111.5 -17t94.5 -52q17 -11 17 -32q0 -16 -11.5 -28t-27.5 -12q-13 0 -24 9q-35 29 -77.5 43.5t-88.5 14.5q-64 0 -103.5 -29.5t-39.5 -76.5q0 -31 21.5 -51.5t52.5 -32t88 -26.5q74 -20 120.5 -39.5t79.5 -59t33 -104.5q0 -50 -23.5 -93.5z" />
    <glyph glyph-name="uni015F" unicode="&#x15f;" horiz-adv-x="465" 
d="M373.5 33.5q-44.5 -40.5 -126.5 -44.5l-17 -44q16 11 37 11q29 0 47.5 -18.5t18.5 -48.5q0 -36 -30 -58t-74 -22q-26 0 -49.5 6t-40.5 16q-11 7 -11 19q0 8 6 14.5t15 6.5q6 0 11 -4q31 -19 67 -19q25 0 43 11.5t18 30.5q0 16 -9.5 25.5t-27.5 9.5t-32 -11q-5 -5 -13 -5
q-10 0 -16.5 6.5t-6.5 16.5q0 3 2 9l18 48q-86 6 -148 56q-14 9 -14 27q0 14 10 23.5t23 9.5q11 0 20 -6q28 -23 63 -36.5t74 -13.5q54 0 84 22t30 58t-31 53.5t-93 32.5q-56 13 -90.5 26t-59.5 41t-25 74q0 38 21.5 69.5t62 50.5t96.5 19q93 0 160 -53q13 -11 13 -25
q0 -13 -9.5 -22.5t-22.5 -9.5q-9 0 -18 7q-23 20 -54.5 31t-68.5 11q-49 0 -78 -20t-29 -53q0 -32 29.5 -47.5t88.5 -29.5q56 -13 92.5 -27t62.5 -43.5t26 -79.5q0 -60 -44.5 -100.5z" />
    <glyph glyph-name="Scaron" unicode="&#x160;" horiz-adv-x="586" 
d="M49 100q0 17 11.5 29t28.5 12q16 0 25 -9q81 -70 183 -70q81 0 119 34.5t38 80.5q0 37 -22.5 60.5t-55.5 36.5t-91 29q-74 19 -118.5 37t-76 54.5t-31.5 97.5q0 54 30 96t83.5 65.5t121.5 23.5q62 0 111.5 -17t94.5 -52q17 -11 17 -32q0 -16 -11.5 -28t-27.5 -12
q-13 0 -24 9q-35 29 -77.5 43.5t-88.5 14.5q-64 0 -103.5 -29.5t-39.5 -76.5q0 -31 21.5 -51.5t52.5 -32t88 -26.5q74 -20 120.5 -39.5t79.5 -59t33 -104.5q0 -52 -25 -96.5t-80.5 -72t-140.5 -27.5q-71 0 -129 21.5t-101 59.5q-15 13 -15 31zM397.5 867q6.5 -6 6.5 -16
q0 -6 -3 -11l-70 -104q-6 -9 -15.5 -14t-20.5 -5h-18q-11 0 -20.5 5t-15.5 14l-70 104q-3 5 -3 11q0 10 6.5 16t15.5 6q11 0 16 -8l80 -104l80 104q5 8 16 8q9 0 15.5 -6z" />
    <glyph glyph-name="scaron" unicode="&#x161;" horiz-adv-x="465" 
d="M41 72q0 14 10 23.5t23 9.5q11 0 20 -6q28 -23 63 -36.5t74 -13.5q54 0 84 22t30 58t-31 53.5t-93 32.5q-56 13 -90.5 26t-59.5 41t-25 74q0 38 21.5 69.5t62 50.5t96.5 19q93 0 160 -53q13 -11 13 -25q0 -13 -9.5 -22.5t-22.5 -9.5q-9 0 -18 7q-23 20 -54.5 31t-68.5 11
q-49 0 -78 -20t-29 -53q0 -32 29.5 -47.5t88.5 -29.5q56 -13 92.5 -27t62.5 -43.5t26 -79.5q0 -64 -50 -105t-140 -41q-103 0 -173 57q-14 9 -14 27zM335.5 720q6.5 -6 6.5 -16q0 -6 -3 -11l-70 -104q-6 -9 -15.5 -14t-20.5 -5h-18q-11 0 -20.5 5t-15.5 14l-70 104
q-3 5 -3 11q0 10 6.5 16t15.5 6q11 0 16 -8l80 -104l80 104q5 8 16 8q9 0 15.5 -6z" />
    <glyph glyph-name="uni0162" unicode="&#x162;" horiz-adv-x="570" 
d="M255.5 8q-12.5 12 -12.5 29v556h-178q-15 0 -26 11t-11 26t11 26t26 11h440q15 0 26 -11t11 -26t-11 -26t-26 -11h-179v-556q0 -17 -12 -29t-29 -12t-29.5 12zM247.5 -265q-6.5 6 -6.5 15q0 7 11 18q16 15 27 35t13 37q-2 -2 -11 -2q-18 0 -30 12.5t-12 31.5
q0 20 13.5 33.5t32.5 13.5q22 0 37.5 -18t15.5 -49q0 -36 -17 -69.5t-45 -57.5q-8 -6 -14 -6q-8 0 -14.5 6z" />
    <glyph glyph-name="uni0163" unicode="&#x163;" horiz-adv-x="294" 
d="M275 55q9 -9 9 -23q0 -20 -19 -28q-27 -16 -68 -16q-53 0 -80 29t-27 84v316h-51q-13 0 -23 10t-10 23q0 14 10 23.5t23 9.5h51v99q0 15 11 26t27 11q15 0 26 -11t11 -26v-99h69q14 0 24 -10t10 -23t-10 -23t-24 -10h-69v-300q0 -28 12.5 -45t36.5 -17q12 0 23 4.5
t15 4.5q14 0 23 -9zM112.5 -265q-6.5 6 -6.5 15q0 7 11 18q16 15 27 35t13 37q-2 -2 -11 -2q-18 0 -30 12.5t-12 31.5q0 20 13.5 33.5t32.5 13.5q22 0 37.5 -18t15.5 -49q0 -36 -17 -69.5t-45 -57.5q-8 -6 -14 -6q-8 0 -14.5 6z" />
    <glyph glyph-name="Tcaron" unicode="&#x164;" horiz-adv-x="570" 
d="M255.5 8q-12.5 12 -12.5 29v556h-178q-15 0 -26 11t-11 26t11 26t26 11h440q15 0 26 -11t11 -26t-11 -26t-26 -11h-179v-556q0 -17 -12 -29t-29 -12t-29.5 12zM394.5 867q6.5 -6 6.5 -16q0 -6 -3 -11l-70 -104q-6 -9 -15.5 -14t-20.5 -5h-18q-11 0 -20.5 5t-15.5 14
l-70 104q-3 5 -3 11q0 10 6.5 16t15.5 6q11 0 16 -8l80 -104l80 104q5 8 16 8q9 0 15.5 -6z" />
    <glyph glyph-name="tcaron" unicode="&#x165;" horiz-adv-x="313" 
d="M275 55q9 -9 9 -23q0 -20 -19 -28q-27 -16 -68 -16q-53 0 -80 29t-27 84v316h-51q-13 0 -23 10t-10 23q0 14 10 23.5t23 9.5h51v99q0 15 11 26t27 11q15 0 26 -11t11 -26v-99h69q14 0 24 -10t10 -23t-10 -23t-24 -10h-69v-300q0 -28 12.5 -45t36.5 -17q12 0 23 4.5
t15 4.5q14 0 23 -9zM234.5 549q-6.5 6 -6.5 15q0 7 11 18q16 15 27 35t13 37q-2 -2 -11 -2q-18 0 -30 12.5t-12 31.5q0 20 13.5 33.5t32.5 13.5q22 0 37.5 -18t15.5 -49q0 -36 -17 -69.5t-45 -57.5q-8 -6 -14 -6q-8 0 -14.5 6z" />
    <glyph glyph-name="Tbar" unicode="&#x166;" horiz-adv-x="570" 
d="M531 656q11 -11 11 -26t-11 -26t-26 -11h-179v-251h131q10 0 17.5 -7t7.5 -17t-7.5 -17t-17.5 -7h-131v-257q0 -17 -12 -29t-29 -12t-29.5 12t-12.5 29v257h-131q-10 0 -17 7t-7 17t7 17t17 7h131v251h-178q-15 0 -26 11t-11 26t11 26t26 11h440q15 0 26 -11z" />
    <glyph glyph-name="tbar" unicode="&#x167;" horiz-adv-x="294" 
d="M275 55q9 -9 9 -23q0 -20 -19 -28q-27 -16 -68 -16q-53 0 -80 29t-27 84v125h-60q-10 0 -17 7.5t-7 17.5t7 16.5t17 6.5h60v143h-51q-13 0 -23 10t-10 23q0 14 10 23.5t23 9.5h51v99q0 15 11 26t27 11q15 0 26 -11t11 -26v-99h69q14 0 24 -10t10 -23t-10 -23t-24 -10h-69
v-143h51q10 0 17 -6.5t7 -16.5t-7 -17.5t-17 -7.5h-51v-109q0 -28 12.5 -45t36.5 -17q12 0 23 4.5t15 4.5q14 0 23 -9z" />
    <glyph glyph-name="Utilde" unicode="&#x168;" horiz-adv-x="700" 
d="M78 630q0 17 12 29t30 12q17 0 29 -12t12 -29v-369q0 -93 49 -146t140 -53t140 53t49 146v369q0 17 12 29t30 12q17 0 29 -12t12 -29v-370q0 -127 -69.5 -199.5t-202.5 -72.5t-202.5 72.5t-69.5 198.5v371zM367.5 734.5q-15.5 13.5 -33.5 39.5q-13 20 -22.5 29.5
t-24.5 9.5q-19 0 -32 -17.5t-16 -52.5q-1 -8 -7 -14t-15 -6q-10 0 -16.5 7.5t-5.5 16.5q5 52 30 83t66 31q26 0 41.5 -13.5t33.5 -39.5q15 -21 24 -30t24 -9q18 0 31 17.5t16 52.5q1 9 7.5 14.5t14.5 5.5q10 0 17 -7t6 -17q-5 -53 -30 -83.5t-66 -30.5q-27 0 -42.5 13.5z
" />
    <glyph glyph-name="utilde" unicode="&#x169;" 
d="M465 476q11 -11 11 -26v-417q0 -15 -11 -26t-26 -11q-16 0 -27 11t-11 26v34q-31 -34 -76 -56.5t-96 -22.5q-154 0 -154 154v308q0 15 11 26t27 11q15 0 26 -11t11 -26v-285q0 -60 27.5 -85t80.5 -25q42 0 81.5 21t61.5 52v322q0 15 11 26t26 11q16 0 27 -11z
M292.5 587.5q-15.5 13.5 -33.5 39.5q-13 20 -22.5 29.5t-24.5 9.5q-19 0 -32 -17.5t-16 -52.5q-1 -8 -7 -14t-15 -6q-10 0 -16.5 7.5t-5.5 16.5q5 52 30 83t66 31q26 0 41.5 -13.5t33.5 -39.5q15 -21 24 -30t24 -9q18 0 31 17.5t16 52.5q1 9 7.5 14.5t14.5 5.5q10 0 17 -7
t6 -17q-5 -53 -30 -83.5t-66 -30.5q-27 0 -42.5 13.5z" />
    <glyph glyph-name="Umacron" unicode="&#x16a;" horiz-adv-x="700" 
d="M78 630q0 17 12 29t30 12q17 0 29 -12t12 -29v-369q0 -93 49 -146t140 -53t140 53t49 146v369q0 17 12 29t30 12q17 0 29 -12t12 -29v-370q0 -127 -69.5 -199.5t-202.5 -72.5t-202.5 72.5t-69.5 198.5v371zM199 746q-7 7 -7 17t7 17t17 7h267q10 0 17 -7t7 -17t-7 -17
t-17 -7h-267q-10 0 -17 7z" />
    <glyph glyph-name="umacron" unicode="&#x16b;" 
d="M465 476q11 -11 11 -26v-417q0 -15 -11 -26t-26 -11q-16 0 -27 11t-11 26v34q-31 -34 -76 -56.5t-96 -22.5q-154 0 -154 154v308q0 15 11 26t27 11q15 0 26 -11t11 -26v-285q0 -60 27.5 -85t80.5 -25q42 0 81.5 21t61.5 52v322q0 15 11 26t26 11q16 0 27 -11zM124 599
q-7 7 -7 17t7 17t17 7h267q10 0 17 -7t7 -17t-7 -17t-17 -7h-267q-10 0 -17 7z" />
    <glyph glyph-name="Ubreve" unicode="&#x16c;" horiz-adv-x="700" 
d="M78 630q0 17 12 29t30 12q17 0 29 -12t12 -29v-369q0 -93 49 -146t140 -53t140 53t49 146v369q0 17 12 29t30 12q17 0 29 -12t12 -29v-370q0 -127 -69.5 -199.5t-202.5 -72.5t-202.5 72.5t-69.5 198.5v371zM262 735.5q-42 18.5 -74 53.5q-7 7 -7 17t7 17t17 7q13 0 18 -8
q52 -57 127 -57q37 0 69.5 15t56.5 42q6 8 18 8q10 0 17 -7t7 -17q0 -8 -7 -17q-31 -35 -72 -53.5t-89 -18.5q-46 0 -88 18.5z" />
    <glyph glyph-name="ubreve" unicode="&#x16d;" 
d="M465 476q11 -11 11 -26v-417q0 -15 -11 -26t-26 -11q-16 0 -27 11t-11 26v34q-31 -34 -76 -56.5t-96 -22.5q-154 0 -154 154v308q0 15 11 26t27 11q15 0 26 -11t11 -26v-285q0 -60 27.5 -85t80.5 -25q42 0 81.5 21t61.5 52v322q0 15 11 26t26 11q16 0 27 -11zM187 588.5
q-42 18.5 -74 53.5q-7 7 -7 17t7 17t17 7q13 0 18 -8q52 -57 127 -57q37 0 69.5 15t56.5 42q6 8 18 8q10 0 17 -7t7 -17q0 -8 -7 -17q-31 -35 -72 -53.5t-89 -18.5q-46 0 -88 18.5z" />
    <glyph glyph-name="Uring" unicode="&#x16e;" horiz-adv-x="700" 
d="M78 630q0 17 12 29t30 12q17 0 29 -12t12 -29v-369q0 -93 49 -146t140 -53t140 53t49 146v369q0 17 12 29t30 12q17 0 29 -12t12 -29v-370q0 -127 -69.5 -199.5t-202.5 -72.5t-202.5 72.5t-69.5 198.5v371zM281 878q29 29 69 29t69 -29t29 -70q0 -40 -29 -69t-69 -29
q-41 0 -69.5 29t-28.5 69q0 41 29 70zM391.5 850q-16.5 17 -41.5 17q-24 0 -41 -17t-17 -42q0 -24 17 -41.5t41 -17.5t41 17.5t17 41.5q0 25 -16.5 42z" />
    <glyph glyph-name="uring" unicode="&#x16f;" 
d="M465 476q11 -11 11 -26v-417q0 -15 -11 -26t-26 -11q-16 0 -27 11t-11 26v34q-31 -34 -76 -56.5t-96 -22.5q-154 0 -154 154v308q0 15 11 26t27 11q15 0 26 -11t11 -26v-285q0 -60 27.5 -85t80.5 -25q42 0 81.5 21t61.5 52v322q0 15 11 26t26 11q16 0 27 -11zM206 731
q29 29 69 29t69 -29t29 -70q0 -40 -29 -69t-69 -29q-41 0 -69.5 29t-28.5 69q0 41 29 70zM316.5 703q-16.5 17 -41.5 17q-24 0 -41 -17t-17 -42q0 -24 17 -41.5t41 -17.5t41 17.5t17 41.5q0 25 -16.5 42z" />
    <glyph glyph-name="Uhungarumlaut" unicode="&#x170;" horiz-adv-x="700" 
d="M78 630q0 17 12 29t30 12q17 0 29 -12t12 -29v-369q0 -93 49 -146t140 -53t140 53t49 146v369q0 17 12 29t30 12q17 0 29 -12t12 -29v-370q0 -127 -69.5 -199.5t-202.5 -72.5t-202.5 72.5t-69.5 198.5v371zM269.5 722q-6.5 6 -6.5 15q0 7 4 12l75 113q9 12 22 12
q11 0 18.5 -8t7.5 -19q0 -10 -5 -16l-84 -106q-8 -9 -17 -9q-8 0 -14.5 6zM411.5 722q-6.5 6 -6.5 15q0 7 4 12l75 113q9 12 22 12q11 0 18.5 -8t7.5 -19q0 -10 -5 -16l-84 -106q-8 -9 -17 -9q-8 0 -14.5 6z" />
    <glyph glyph-name="uhungarumlaut" unicode="&#x171;" 
d="M465 476q11 -11 11 -26v-417q0 -15 -11 -26t-26 -11q-16 0 -27 11t-11 26v34q-31 -34 -76 -56.5t-96 -22.5q-154 0 -154 154v308q0 15 11 26t27 11q15 0 26 -11t11 -26v-285q0 -60 27.5 -85t80.5 -25q42 0 81.5 21t61.5 52v322q0 15 11 26t26 11q16 0 27 -11zM194.5 575
q-6.5 6 -6.5 15q0 7 4 12l75 113q9 12 22 12q11 0 18.5 -8t7.5 -19q0 -10 -5 -16l-84 -106q-8 -9 -17 -9q-8 0 -14.5 6zM336.5 575q-6.5 6 -6.5 15q0 7 4 12l75 113q9 12 22 12q11 0 18.5 -8t7.5 -19q0 -10 -5 -16l-84 -106q-8 -9 -17 -9q-8 0 -14.5 6z" />
    <glyph glyph-name="Uogonek" unicode="&#x172;" horiz-adv-x="700" 
d="M147.5 60.5q-69.5 72.5 -69.5 198.5v371q0 17 12 29t30 12q17 0 29 -12t12 -29v-369q0 -93 49 -146t140 -53t140 53t49 146v369q0 17 12 29t30 12q17 0 29 -12t12 -29v-370q0 -98 -40 -162.5t-118 -92.5q-53 -18 -82.5 -44t-29.5 -55q0 -18 12 -28.5t30 -10.5q9 0 17 3
q12 2 22 -5.5t10 -19.5q0 -8 -5.5 -15t-13.5 -9q-25 -7 -46 -7q-40 0 -69 19.5t-29 55.5q0 29 22.5 54.5t60.5 44.5h-13q-133 0 -202.5 72.5z" />
    <glyph glyph-name="uogonek" unicode="&#x173;" 
d="M476 33q0 -13 -10 -25q1 -1 -3 -4q-42 -29 -61.5 -51t-19.5 -47q0 -18 12 -28.5t30 -10.5q9 0 16.5 2.5t10.5 2.5q10 0 17.5 -7t7.5 -18q0 -9 -5.5 -15.5t-10.5 -8.5q-25 -9 -52 -9q-40 0 -69 19.5t-29 55.5q0 34 31 63.5t78 48.5q-18 11 -18 32v34q-31 -34 -76 -56.5
t-96 -22.5q-154 0 -154 154v308q0 15 11 26t27 11q15 0 26 -11t11 -26v-285q0 -60 27.5 -85t80.5 -25q42 0 81.5 21t61.5 52v322q0 15 11 26t26 11q16 0 27 -11t11 -26v-417z" />
    <glyph glyph-name="Wcircumflex" unicode="&#x174;" horiz-adv-x="883" 
d="M598 8q-16 12 -20 31l-137 499l-136 -499q-5 -20 -20.5 -31.5t-35.5 -11.5t-35.5 11.5t-20.5 30.5l-164 576q-2 8 -2 13q0 18 13 31t31 13q15 0 26.5 -9.5t15.5 -23.5l141 -527l145 528q4 14 15.5 23t27.5 9q15 0 26.5 -9t15.5 -23l145 -528l140 527q4 14 15.5 23.5
t26.5 9.5q19 0 31.5 -13t12.5 -31q0 -5 -2 -13l-164 -576q-4 -19 -19.5 -30.5t-35.5 -11.5t-36 12zM442 829l-80 -105q-4 -7 -16 -7q-9 0 -15.5 6t-6.5 16q0 5 3 11l70 104q6 8 16 13.5t20 5.5h18q10 0 20 -5.5t16 -13.5l70 -104q3 -6 3 -11q0 -10 -6.5 -16t-15.5 -6
q-12 0 -16 7z" />
    <glyph glyph-name="wcircumflex" unicode="&#x175;" horiz-adv-x="734" 
d="M500 5.5q-13 9.5 -17 25.5l-116 357l-116 -357q-4 -16 -17 -25.5t-30 -9.5t-30.5 9.5t-17.5 25.5l-130 407q-2 8 -2 12q0 16 11 26.5t26 10.5q13 0 23 -7.5t13 -18.5l111 -363l118 360q4 13 15.5 21t25.5 8t25.5 -8t15.5 -21l118 -360l111 363q3 11 13 18.5t23 7.5
q15 0 26 -11t11 -26q0 -7 -2 -13l-130 -406q-4 -16 -17.5 -25.5t-30.5 -9.5t-30 9.5zM368 670l-80 -105q-4 -7 -16 -7q-9 0 -15.5 6t-6.5 16q0 5 3 11l70 104q6 8 16 13.5t20 5.5h18q10 0 20 -5.5t16 -13.5l70 -104q3 -6 3 -11q0 -10 -6.5 -16t-15.5 -6q-12 0 -16 7z" />
    <glyph glyph-name="Ycircumflex" unicode="&#x176;" horiz-adv-x="626" 
d="M578 609l-223 -327v-245q0 -17 -12.5 -29t-29.5 -12t-29 12t-12 29v245l-224 326q-7 8 -7 23q0 17 12 28.5t28 11.5q23 0 34 -18l198 -297l197 297q13 18 34 18q17 0 29 -12t12 -28q0 -11 -7 -22zM314 829l-80 -105q-4 -7 -16 -7q-9 0 -15.5 6t-6.5 16q0 5 3 11l70 104
q6 8 16 13.5t20 5.5h18q10 0 20 -5.5t16 -13.5l70 -104q3 -6 3 -11q0 -10 -6.5 -16t-15.5 -6q-12 0 -16 7z" />
    <glyph glyph-name="ycircumflex" unicode="&#x177;" horiz-adv-x="490" 
d="M59.5 -137.5q10.5 9.5 25.5 9.5l16 -1q26 0 43 11t29 40l32 73l-182 440q-3 8 -3 14q0 16 10.5 27t26.5 11q12 0 21.5 -6.5t13.5 -16.5l153 -377l152 377q4 10 14 16.5t21 6.5q16 0 27 -11t11 -27q0 -7 -3 -15l-222 -532q-21 -51 -56.5 -74t-85.5 -24q-14 0 -22 2
q-14 1 -23 10.5t-9 22.5q0 14 10.5 23.5zM246 682l-80 -105q-4 -7 -16 -7q-9 0 -15.5 6t-6.5 16q0 5 3 11l70 104q6 8 16 13.5t20 5.5h18q10 0 20 -5.5t16 -13.5l70 -104q3 -6 3 -11q0 -10 -6.5 -16t-15.5 -6q-12 0 -16 7z" />
    <glyph glyph-name="Ydieresis" unicode="&#x178;" horiz-adv-x="626" 
d="M578 609l-223 -327v-245q0 -17 -12.5 -29t-29.5 -12t-29 12t-12 29v245l-224 326q-7 8 -7 23q0 17 12 28.5t28 11.5q23 0 34 -18l198 -297l197 297q13 18 34 18q17 0 29 -12t12 -28q0 -11 -7 -22zM177.5 747q-13.5 14 -13.5 33t13.5 32.5t32.5 13.5t32.5 -13.5
t13.5 -32.5q0 -20 -13.5 -33.5t-32.5 -13.5t-32.5 14zM383.5 747q-13.5 14 -13.5 33t14 32.5t33 13.5t32.5 -13.5t13.5 -32.5t-13.5 -33t-32.5 -14q-20 0 -33.5 14z" />
    <glyph glyph-name="Zacute" unicode="&#x179;" horiz-adv-x="585" 
d="M57 14q-14 14 -14 34q0 15 10 28l370 517h-343q-15 0 -26 11t-11 26t11 26t26 11h406q20 0 34 -14t14 -34q0 -15 -10 -28l-370 -517h350q15 0 26 -11t11 -26t-11 -26t-26 -11h-413q-20 0 -34 14zM300 719q-8 0 -14 6t-6 14q0 9 7 14l114 111q7 7 18 7q10 0 17.5 -7
t7.5 -18q0 -12 -9 -19l-121 -103q-5 -5 -14 -5z" />
    <glyph glyph-name="zacute" unicode="&#x17a;" horiz-adv-x="472" 
d="M59 11.5q-12 11.5 -12 27.5q0 14 8 24l263 354h-238q-13 0 -23 10t-10 23t10 23t23 10h301q16 0 27.5 -11.5t11.5 -27.5q0 -11 -8 -23l-264 -356h243q14 0 23.5 -9.5t9.5 -22.5q0 -14 -9.5 -23.5t-23.5 -9.5h-304q-16 0 -28 11.5zM243 572q-8 0 -14 6t-6 14q0 9 7 14
l114 111q7 7 18 7q10 0 17.5 -7t7.5 -18q0 -12 -9 -19l-121 -103q-5 -5 -14 -5z" />
    <glyph glyph-name="Zdotaccent" unicode="&#x17b;" horiz-adv-x="585" 
d="M57 14q-14 14 -14 34q0 15 10 28l370 517h-343q-15 0 -26 11t-11 26t11 26t26 11h406q20 0 34 -14t14 -34q0 -15 -10 -28l-370 -517h350q15 0 26 -11t11 -26t-11 -26t-26 -11h-413q-20 0 -34 14zM260 811q14 14 33 14t32.5 -13.5t13.5 -33.5t-13.5 -33.5t-32.5 -13.5
t-33 14t-14 33t14 33z" />
    <glyph glyph-name="zdotaccent" unicode="&#x17c;" horiz-adv-x="472" 
d="M59 11.5q-12 11.5 -12 27.5q0 14 8 24l263 354h-238q-13 0 -23 10t-10 23t10 23t23 10h301q16 0 27.5 -11.5t11.5 -27.5q0 -11 -8 -23l-264 -356h243q14 0 23.5 -9.5t9.5 -22.5q0 -14 -9.5 -23.5t-23.5 -9.5h-304q-16 0 -28 11.5zM203 664q14 14 33 14t32.5 -13.5
t13.5 -33.5t-13.5 -33.5t-32.5 -13.5t-33 14t-14 33t14 33z" />
    <glyph glyph-name="Zcaron" unicode="&#x17d;" horiz-adv-x="585" 
d="M57 14q-14 14 -14 34q0 15 10 28l370 517h-343q-15 0 -26 11t-11 26t11 26t26 11h406q20 0 34 -14t14 -34q0 -15 -10 -28l-370 -517h350q15 0 26 -11t11 -26t-11 -26t-26 -11h-413q-20 0 -34 14zM402.5 867q6.5 -6 6.5 -16q0 -6 -3 -11l-70 -104q-6 -9 -15.5 -14
t-20.5 -5h-18q-11 0 -20.5 5t-15.5 14l-70 104q-3 5 -3 11q0 10 6.5 16t15.5 6q11 0 16 -8l80 -104l80 104q5 8 16 8q9 0 15.5 -6z" />
    <glyph glyph-name="zcaron" unicode="&#x17e;" horiz-adv-x="472" 
d="M59 11.5q-12 11.5 -12 27.5q0 14 8 24l263 354h-238q-13 0 -23 10t-10 23t10 23t23 10h301q16 0 27.5 -11.5t11.5 -27.5q0 -11 -8 -23l-264 -356h243q14 0 23.5 -9.5t9.5 -22.5q0 -14 -9.5 -23.5t-23.5 -9.5h-304q-16 0 -28 11.5zM345.5 720q6.5 -6 6.5 -16q0 -6 -3 -11
l-70 -104q-6 -9 -15.5 -14t-20.5 -5h-18q-11 0 -20.5 5t-15.5 14l-70 104q-3 5 -3 11q0 10 6.5 16t15.5 6q11 0 16 -8l80 -104l80 104q5 8 16 8q9 0 15.5 -6z" />
    <glyph glyph-name="longs" unicode="&#x17f;" horiz-adv-x="283" 
d="M299.5 660q6.5 -8 6.5 -19q0 -13 -8 -21.5t-22 -8.5q-5 0 -13.5 2t-15.5 2q-37 0 -56.5 -24.5t-19.5 -70.5v-487q0 -15 -11 -26t-26 -11q-16 0 -27 11t-11 26v384h-51q-14 0 -24 10t-10 23t10 23t24 10h51v37q0 74 38 115.5t102 41.5q25 0 47 -6q10 -3 16.5 -11z" />
    <glyph glyph-name="uni018F" unicode="&#x18f;" horiz-adv-x="747" 
d="M526.5 634.5q78.5 -43.5 124 -122t45.5 -179.5t-43.5 -180t-119 -122.5t-167.5 -43.5q-94 0 -165 40t-112 113t-49 171q-1 22 10.5 34t33.5 12h525q-5 72 -39.5 128.5t-91.5 87.5t-125 31q-51 0 -96.5 -19t-79.5 -53q-11 -11 -27 -11q-17 0 -28 11t-11 27q0 18 12 27
q92 92 230 92q95 0 173.5 -43.5zM476 89q52 28 86 78t43 116h-476q10 -97 71 -159.5t160 -62.5q64 0 116 28z" />
    <glyph glyph-name="uni0192" unicode="&#x192;" horiz-adv-x="431" 
d="M432 648.5q6 -8.5 6 -19.5q0 -15 -10.5 -26t-26.5 -11q-3 0 -13 4q-13 7 -30 7q-36 0 -63 -24.5t-37 -67.5l-42 -189h110q14 0 24 -10.5t10 -24.5q0 -13 -10 -23t-24 -10h-125l-86 -387q-3 -14 -14 -23t-26 -9q-17 0 -29 12t-12 29l2 12l81 366h-38q-14 0 -24 10t-10 24
t10.5 24t23.5 10h53l45 204q15 70 62 110.5t112 40.5q39 0 66 -15q9 -5 15 -13.5z" />
    <glyph glyph-name="uni019D" unicode="&#x19d;" horiz-adv-x="708" 
d="M559.5 659q12.5 12 28.5 12q18 0 30 -12t12 -29v-583q0 -21 -15 -36t-36 -15q-13 0 -24 5.5t-18 15.5l-376 521v-521q0 -104 -59 -158.5t-153 -54.5q-13 0 -19 2q-15 0 -26 10.5t-11 25.5t10.5 27t24.5 11q12 -2 17 -2q61 1 97 39.5t36 100.5v599q0 22 16 38t38 16
q28 0 44 -22l371 -509v490q0 17 12.5 29z" />
    <glyph glyph-name="Ohorn" unicode="&#x1a0;" horiz-adv-x="765" 
d="M701 593.5q-18 -33.5 -47 -55.5q59 -87 59 -205q0 -98 -42 -176.5t-117 -123.5t-172 -45t-172.5 45t-117 123.5t-41.5 176.5t41.5 176.5t117 123.5t172.5 45q77 0 141 -28.5t108 -81.5q18 15 31 36t15 40q-2 -2 -11 -2q-17 0 -28 12t-11 29q0 18 12 31t30 13
q21 0 35.5 -17t14.5 -46q0 -37 -18 -70.5zM510.5 97q55.5 35 86 97t30.5 139q0 78 -30.5 139.5t-86 96.5t-128.5 35q-74 0 -129.5 -35t-85.5 -96.5t-30 -139.5q0 -77 30 -139t86 -97t129 -35t128.5 35z" />
    <glyph glyph-name="ohorn" unicode="&#x1a1;" horiz-adv-x="572" 
d="M511 464q-16 -32 -42 -53q27 -34 41.5 -77t14.5 -92q0 -70 -29.5 -128t-83.5 -92t-126 -34t-126 34t-83.5 92t-29.5 128t29.5 128t83.5 91.5t126 33.5q94 0 157 -57q17 15 29 34.5t13 37.5l-11 -1q-17 0 -28.5 11.5t-11.5 29.5q0 17 12.5 30t30.5 13q21 0 35.5 -17
t14.5 -46q0 -34 -16 -66zM372 80.5q36 25.5 55 68.5t19 93t-19 92.5t-55 68t-86 25.5t-86.5 -25.5t-55.5 -68t-19 -92.5t19 -93t55.5 -68.5t86.5 -25.5t86 25.5z" />
    <glyph glyph-name="Uhorn" unicode="&#x1af;" horiz-adv-x="700" 
d="M706.5 637.5q-31.5 -41.5 -84.5 -62.5v-315q0 -127 -69.5 -199.5t-202.5 -72.5t-202.5 72.5t-69.5 198.5v371q0 17 12 29t30 12q17 0 29 -12t12 -29v-369q0 -93 49 -146t140 -53t140 53t49 146v369q0 17 12 29t30 12q17 0 29 -12t12 -29v-16q29 15 50 41t23 53l-11 -1
q-17 0 -28 11.5t-11 29.5t12.5 30.5t30.5 12.5q21 0 35.5 -17t14.5 -46q0 -49 -31.5 -90.5z" />
    <glyph glyph-name="uhorn" unicode="&#x1b0;" 
d="M544.5 454.5q-25.5 -38.5 -68.5 -61.5v-360q0 -15 -11 -26t-26 -11q-16 0 -27 11t-11 26v34q-31 -34 -76 -56.5t-96 -22.5q-154 0 -154 154v308q0 15 11 26t27 11q15 0 26 -11t11 -26v-285q0 -60 27.5 -85t80.5 -25q42 0 81.5 21t61.5 52v322q0 15 11 26t26 11
q16 0 27 -11t11 -26v-14q21 15 35.5 37t15.5 43l-11 -1q-17 0 -28.5 11.5t-11.5 29.5q0 17 12.5 30t30.5 13q21 0 36 -17t15 -46q0 -43 -25.5 -81.5z" />
    <glyph glyph-name="Gcaron" unicode="&#x1e6;" horiz-adv-x="713" 
d="M644.5 331.5q11.5 -11.5 11.5 -33.5v-163q0 -18 -5 -31t-17 -24q-48 -44 -109 -68.5t-131 -24.5q-95 0 -173.5 43.5t-124 122.5t-45.5 180t45.5 179.5t124 122t173.5 43.5q138 0 230 -92q11 -9 11 -27q0 -16 -11 -27t-27 -11q-17 0 -28 11q-34 34 -79 53t-96 19
q-72 0 -131 -34.5t-92.5 -96.5t-33.5 -140t33.5 -140t92.5 -97t131 -35q55 0 102.5 21.5t76.5 50.5v136h-196q-15 0 -26 11t-11 26t11 26t26 11h235q21 0 32.5 -11.5zM502.5 867q6.5 -6 6.5 -16q0 -6 -3 -11l-70 -104q-6 -9 -15.5 -14t-20.5 -5h-18q-11 0 -20.5 5t-15.5 14
l-70 104q-3 5 -3 11q0 10 6.5 16t15.5 6q11 0 16 -8l80 -104l80 104q5 8 16 8q9 0 15.5 -6z" />
    <glyph glyph-name="gcaron" unicode="&#x1e7;" horiz-adv-x="574" 
d="M488 476q11 -11 11 -26v-436q0 -111 -65 -160.5t-165 -49.5q-56 0 -96.5 12t-78.5 43q-13 11 -13 26q0 13 10 23t23 10q10 0 19 -7q28 -24 60.5 -34.5t75.5 -10.5q67 0 111 35.5t44 109.5v68q-28 -38 -70.5 -61.5t-91.5 -23.5q-63 0 -111.5 30t-76 86.5t-27.5 133.5
q0 76 27 133t76 87.5t112 30.5q48 0 90 -22.5t72 -63.5v41q0 15 11 26t27 11q15 0 26 -11zM363.5 83q40.5 23 60.5 56v211q-20 33 -60 55.5t-84 22.5q-72 0 -113.5 -51t-41.5 -133q0 -81 42 -132.5t113 -51.5q43 0 83.5 23zM399.5 720q6.5 -6 6.5 -16q0 -6 -3 -11l-70 -104
q-6 -9 -15.5 -14t-20.5 -5h-18q-11 0 -20.5 5t-15.5 14l-70 104q-3 5 -3 11q0 10 6.5 16t15.5 6q11 0 16 -8l80 -104l80 104q5 8 16 8q9 0 15.5 -6z" />
    <glyph glyph-name="uni01EA" unicode="&#x1ea;" horiz-adv-x="765" 
d="M390 -51.5q-16 -20.5 -16 -42.5q0 -18 12 -28.5t30 -10.5q9 0 16.5 2.5t10.5 2.5q10 0 17.5 -7t7.5 -18q0 -9 -5.5 -15.5t-10.5 -8.5q-25 -9 -52 -9q-40 0 -69 19.5t-29 55.5q0 28 22.5 54t58.5 45h-1q-97 0 -172.5 45t-117 123.5t-41.5 176.5t41.5 176.5t117 123.5
t172.5 45t172 -45t117 -123.5t42 -176.5q0 -88 -34 -161t-96.5 -120t-143.5 -60q-33 -23 -49 -43.5zM167 194q30 -62 86 -97t129 -35t128.5 35t86 97t30.5 139q0 78 -30.5 139.5t-86 96.5t-128.5 35q-74 0 -129.5 -35t-85.5 -96.5t-30 -139.5q0 -77 30 -139z" />
    <glyph glyph-name="uni01EB" unicode="&#x1eb;" horiz-adv-x="572" 
d="M282.5 -52q-15.5 -20 -15.5 -42q0 -18 12 -28.5t30 -10.5q9 0 16.5 2.5t10.5 2.5q10 0 17.5 -7t7.5 -18q0 -9 -5.5 -15.5t-10.5 -8.5q-25 -9 -52 -9q-40 0 -69 19.5t-29 55.5q0 28 22.5 54t58.5 45q-69 2 -121 36.5t-80 91.5t-28 126q0 70 29.5 128t83.5 91.5t126 33.5
t126 -33.5t83.5 -91.5t29.5 -128q0 -96 -52.5 -165.5t-141.5 -84.5q-33 -24 -48.5 -44zM144 149q19 -43 55.5 -68.5t86.5 -25.5t86 25.5t55 68.5t19 93t-19 92.5t-55 68t-86 25.5t-86.5 -25.5t-55.5 -68t-19 -92.5t19 -93z" />
    <glyph glyph-name="Aringacute" unicode="&#x1fa;" horiz-adv-x="658" 
d="M630 39q0 -18 -12.5 -30.5t-29.5 -12.5q-13 0 -24 7.5t-16 19.5l-48 125h-343l-48 -125q-4 -12 -14.5 -19.5t-24.5 -7.5q-18 0 -30.5 12.5t-12.5 29.5q0 5 4 17l230 570q8 21 26.5 33.5t41.5 12.5t41 -12.5t26 -33.5l231 -570q3 -15 3 -16zM186 222h286l-143 371z
M260 878q29 29 69 29t69 -29t29 -70q0 -40 -29 -69t-69 -29q-41 0 -69.5 29t-28.5 69q0 41 29 70zM370.5 850q-16.5 17 -41.5 17q-24 0 -41 -17t-17 -42q0 -24 17 -41.5t41 -17.5t41 17.5t17 41.5q0 25 -16.5 42zM336 931q-8 0 -14 6t-6 14q0 9 7 14l114 111q7 7 18 7
q10 0 17.5 -7t7.5 -18q0 -12 -9 -19l-121 -103q-5 -5 -14 -5z" />
    <glyph glyph-name="aringacute" unicode="&#x1fb;" horiz-adv-x="527" 
d="M400 455q52 -40 52 -123v-299q0 -15 -11 -26t-27 -11q-15 0 -26 11t-11 26v22q-28 -33 -69 -50t-91 -17q-43 0 -81.5 18.5t-63 55t-24.5 86.5q0 51 24.5 87t63 54t81.5 18q103 0 160 -66v87q0 48 -34 75t-88 27q-37 0 -67.5 -11.5t-58.5 -36.5q-10 -6 -20 -6q-13 0 -22 9
t-9 22q0 7 4 14t9 11q72 63 174 63q83 0 135 -40zM320.5 57.5q35.5 15.5 56.5 44.5v91q-21 29 -56.5 44.5t-76.5 15.5q-52 0 -85.5 -29.5t-33.5 -76.5q0 -46 33.5 -75.5t85.5 -29.5q41 0 76.5 15.5zM197 731q29 29 69 29t69 -29t29 -70q0 -40 -29 -69t-69 -29
q-41 0 -69.5 29t-28.5 69q0 41 29 70zM307.5 703q-16.5 17 -41.5 17q-24 0 -41 -17t-17 -42q0 -24 17 -41.5t41 -17.5t41 17.5t17 41.5q0 25 -16.5 42zM273 784q-8 0 -14 6t-6 14q0 9 7 14l114 111q7 7 18 7q10 0 17.5 -7t7.5 -18q0 -12 -9 -19l-121 -103q-5 -5 -14 -5z" />
    <glyph glyph-name="AEacute" unicode="&#x1fc;" horiz-adv-x="947" 
d="M886.5 63q11.5 -11 11.5 -26t-11.5 -26t-26.5 -11h-360q-21 0 -32.5 11.5t-11.5 32.5v104h-267l-81 -134q-5 -8 -14.5 -13t-19.5 -5q-16 0 -27.5 11.5t-11.5 27.5q0 8 6 20l363 582q19 30 54 30h402q15 0 26.5 -11t11.5 -26t-11.5 -26t-26.5 -11h-321v-215h314
q15 0 26.5 -11t11.5 -26t-11.5 -26t-26.5 -11h-314v-230h321q15 0 26.5 -11zM233 222h223v371zM503 719q-8 0 -14 6t-6 14q0 9 7 14l114 111q7 7 18 7q10 0 17.5 -7t7.5 -18q0 -12 -9 -19l-121 -103q-5 -5 -14 -5z" />
    <glyph glyph-name="aeacute" unicode="&#x1fd;" horiz-adv-x="889" 
d="M524 99q43 -47 113 -47q67 0 119 43q10 6 18 6q13 0 21.5 -9t8.5 -22q0 -15 -13 -25q-69 -57 -157 -57q-65 0 -114.5 28.5t-78.5 87.5q-26 -52 -79.5 -84t-119.5 -32q-82 0 -138 42.5t-56 117.5q0 50 24.5 86t65 54.5t88.5 18.5q112 0 175 -64v86q0 47 -36.5 74t-96.5 27
q-80 0 -139 -49q-9 -6 -19 -6q-13 0 -22 9.5t-9 22.5q0 8 3.5 15t9.5 11q75 62 185 62q64 0 111 -26t60 -79q27 47 72 76t107 29q67 0 116 -33t74.5 -88t25.5 -119q0 -18 -11.5 -28t-32.5 -10h-323q5 -71 48 -118zM752.5 348q-15.5 37 -48.5 61t-82 24q-45 0 -77.5 -24
t-49.5 -61t-19 -76h293q-1 39 -16.5 76zM338 237q-39 16 -82 16q-59 0 -95 -27.5t-36 -73.5q0 -45 36 -72.5t95 -27.5q41 0 74 18.5t52 48t19 61.5v12q-24 29 -63 45zM448 572q-8 0 -14 6t-6 14q0 9 7 14l114 111q7 7 18 7q10 0 17.5 -7t7.5 -18q0 -12 -9 -19l-121 -103
q-5 -5 -14 -5z" />
    <glyph glyph-name="Oslashacute" unicode="&#x1fe;" horiz-adv-x="765" 
d="M682 487.5q31 -70.5 31 -154.5q0 -98 -42 -176.5t-117 -123.5t-172 -45t-173 45l-17 -25q-3 -5 -9 -8.5t-13 -3.5q-11 0 -19 8t-8 19q0 8 4 16l18 26q-54 47 -84 116t-30 152q0 98 41.5 176.5t117 123.5t172.5 45q94 0 167 -42l16 23q3 5 9 8.5t13 3.5q11 0 19 -8t8 -19
q0 -9 -5 -16l-15 -23q57 -47 88 -117.5zM156 220.5q19 -51.5 54 -88.5l296 440q-56 32 -124 32q-74 0 -129.5 -35t-85.5 -96.5t-30 -139.5q0 -61 19 -112.5zM510.5 97q55.5 35 86 97t30.5 139q0 63 -20 116t-58 90l-297 -441q56 -36 130 -36q73 0 128.5 35zM388 719
q-8 0 -14 6t-6 14q0 9 7 14l114 111q7 7 18 7q10 0 17.5 -7t7.5 -18q0 -12 -9 -19l-121 -103q-5 -5 -14 -5z" />
    <glyph glyph-name="oslashacute" unicode="&#x1ff;" horiz-adv-x="572" 
d="M507 344.5q18 -47.5 18 -102.5q0 -70 -29.5 -128t-83.5 -92t-126 -34q-81 0 -142 45l-23 -29q-6 -8 -16 -8t-16 6t-6 15q0 6 5 13l25 31q-32 34 -49 81t-17 100q0 70 29.5 128t83.5 91.5t126 33.5q79 0 137 -41l20 25q5 8 16 8q9 0 15 -6t6 -15t-4 -13l-21 -26
q34 -35 52 -82.5zM160 121l219 277q-39 30 -93 30q-50 0 -86.5 -25.5t-55.5 -68t-19 -92.5q0 -71 35 -121zM372 80.5q36 25.5 55 68.5t19 93q0 73 -38 125l-220 -278q42 -34 98 -34q50 0 86 25.5zM293 572q-8 0 -14 6t-6 14q0 9 7 14l114 111q7 7 18 7q10 0 17.5 -7t7.5 -18
q0 -12 -9 -19l-121 -103q-5 -5 -14 -5z" />
    <glyph glyph-name="uni0218" unicode="&#x218;" horiz-adv-x="586" 
d="M49 100q0 17 11.5 29t28.5 12q16 0 25 -9q81 -70 183 -70q81 0 119 34.5t38 80.5q0 37 -22.5 60.5t-55.5 36.5t-91 29q-74 19 -118.5 37t-76 54.5t-31.5 97.5q0 54 30 96t83.5 65.5t121.5 23.5q62 0 111.5 -17t94.5 -52q17 -11 17 -32q0 -16 -11.5 -28t-27.5 -12
q-13 0 -24 9q-35 29 -77.5 43.5t-88.5 14.5q-64 0 -103.5 -29.5t-39.5 -76.5q0 -31 21.5 -51.5t52.5 -32t88 -26.5q74 -20 120.5 -39.5t79.5 -59t33 -104.5q0 -52 -25 -96.5t-80.5 -72t-140.5 -27.5q-71 0 -129 21.5t-101 59.5q-15 13 -15 31zM250.5 -265q-6.5 6 -6.5 15
q0 7 11 18q16 15 27 35t13 37q-2 -2 -11 -2q-18 0 -30 12.5t-12 31.5q0 20 13.5 33.5t32.5 13.5q22 0 37.5 -18t15.5 -49q0 -36 -17 -69.5t-45 -57.5q-8 -6 -14 -6q-8 0 -14.5 6z" />
    <glyph glyph-name="uni0219" unicode="&#x219;" horiz-adv-x="465" 
d="M41 72q0 14 10 23.5t23 9.5q11 0 20 -6q28 -23 63 -36.5t74 -13.5q54 0 84 22t30 58t-31 53.5t-93 32.5q-56 13 -90.5 26t-59.5 41t-25 74q0 38 21.5 69.5t62 50.5t96.5 19q93 0 160 -53q13 -11 13 -25q0 -13 -9.5 -22.5t-22.5 -9.5q-9 0 -18 7q-23 20 -54.5 31t-68.5 11
q-49 0 -78 -20t-29 -53q0 -32 29.5 -47.5t88.5 -29.5q56 -13 92.5 -27t62.5 -43.5t26 -79.5q0 -64 -50 -105t-140 -41q-103 0 -173 57q-14 9 -14 27zM188.5 -265q-6.5 6 -6.5 15q0 7 11 18q16 15 27 35t13 37q-2 -2 -11 -2q-18 0 -30 12.5t-12 31.5q0 20 13.5 33.5
t32.5 13.5q22 0 37.5 -18t15.5 -49q0 -36 -17 -69.5t-45 -57.5q-8 -6 -14 -6q-8 0 -14.5 6z" />
    <glyph glyph-name="uni021A" unicode="&#x21a;" horiz-adv-x="570" 
d="M255.5 8q-12.5 12 -12.5 29v556h-178q-15 0 -26 11t-11 26t11 26t26 11h440q15 0 26 -11t11 -26t-11 -26t-26 -11h-179v-556q0 -17 -12 -29t-29 -12t-29.5 12zM247.5 -265q-6.5 6 -6.5 15q0 7 11 18q16 15 27 35t13 37q-2 -2 -11 -2q-18 0 -30 12.5t-12 31.5
q0 20 13.5 33.5t32.5 13.5q22 0 37.5 -18t15.5 -49q0 -36 -17 -69.5t-45 -57.5q-8 -6 -14 -6q-8 0 -14.5 6z" />
    <glyph glyph-name="uni021B" unicode="&#x21b;" horiz-adv-x="294" 
d="M275 55q9 -9 9 -23q0 -20 -19 -28q-27 -16 -68 -16q-53 0 -80 29t-27 84v316h-51q-13 0 -23 10t-10 23q0 14 10 23.5t23 9.5h51v99q0 15 11 26t27 11q15 0 26 -11t11 -26v-99h69q14 0 24 -10t10 -23t-10 -23t-24 -10h-69v-300q0 -28 12.5 -45t36.5 -17q12 0 23 4.5
t15 4.5q14 0 23 -9zM112.5 -265q-6.5 6 -6.5 15q0 7 11 18q16 15 27 35t13 37q-2 -2 -11 -2q-18 0 -30 12.5t-12 31.5q0 20 13.5 33.5t32.5 13.5q22 0 37.5 -18t15.5 -49q0 -36 -17 -69.5t-45 -57.5q-8 -6 -14 -6q-8 0 -14.5 6z" />
    <glyph glyph-name="uni0232" unicode="&#x232;" horiz-adv-x="626" 
d="M578 609l-223 -327v-245q0 -17 -12.5 -29t-29.5 -12t-29 12t-12 29v245l-224 326q-7 8 -7 23q0 17 12 28.5t28 11.5q23 0 34 -18l198 -297l197 297q13 18 34 18q17 0 29 -12t12 -28q0 -11 -7 -22zM162 746q-7 7 -7 17t7 17t17 7h267q10 0 17 -7t7 -17t-7 -17t-17 -7h-267
q-10 0 -17 7z" />
    <glyph glyph-name="uni0233" unicode="&#x233;" horiz-adv-x="490" 
d="M59.5 -137.5q10.5 9.5 25.5 9.5l16 -1q26 0 43 11t29 40l32 73l-182 440q-3 8 -3 14q0 16 10.5 27t26.5 11q12 0 21.5 -6.5t13.5 -16.5l153 -377l152 377q4 10 14 16.5t21 6.5q16 0 27 -11t11 -27q0 -7 -3 -15l-222 -532q-21 -51 -56.5 -74t-85.5 -24q-14 0 -22 2
q-14 1 -23 10.5t-9 22.5q0 14 10.5 23.5zM94 599q-7 7 -7 17t7 17t17 7h267q10 0 17 -7t7 -17t-7 -17t-17 -7h-267q-10 0 -17 7z" />
    <glyph glyph-name="uni0237" unicode="&#x237;" horiz-adv-x="225" 
d="M-16 -194q-12 1 -21 10t-9 22t8.5 23t20.5 10q2 0 6.5 -1t10.5 -1q75 0 75 84v497q0 15 11 26t27 11q15 0 26 -11t11 -26v-497q0 -71 -37 -110t-105 -39q-8 0 -24 2z" />
    <glyph glyph-name="uni0259" unicode="&#x259;" horiz-adv-x="563" 
d="M485 114q-31 -58 -85 -92t-122 -34q-71 0 -123.5 34t-80.5 93t-28 132q0 9 11.5 14t32.5 5h346q-5 71 -51.5 119t-121.5 48q-72 0 -130 -46q-7 -4 -18 -4q-12 0 -21 8.5t-9 21.5q0 15 13 25q74 57 171 57q71 0 127 -32t88 -90t32 -132q0 -69 -31 -127zM362.5 74
q35.5 24 54 61t20.5 76h-317q1 -39 18.5 -76t53 -61t86.5 -24q49 0 84.5 24z" />
    <glyph glyph-name="uni0272" unicode="&#x272;" 
d="M476 339v-306q0 -15 -11 -26t-27 -11q-15 0 -26 11t-11 26v283q0 61 -28 86.5t-80 25.5q-42 0 -81.5 -22t-61.5 -53v-400q0 -71 -37 -110t-105 -39q-8 0 -24 2q-12 2 -21 11t-9 21q0 14 10 24t23 9q4 -2 15 -2q33 0 53 20.5t20 63.5v497q0 15 11 26t27 11q15 0 26 -11
t11 -26v-38q28 34 74 58.5t98 24.5q154 0 154 -156z" />
    <glyph glyph-name="uni02B0" unicode="&#x2b0;" horiz-adv-x="398" 
d="M288 330.5q-8 8.5 -8 20.5v177q0 39 -18 55.5t-53 16.5q-27 0 -51.5 -13.5t-40.5 -32.5v-203q0 -12 -8 -20.5t-21 -8.5q-11 0 -19.5 8.5t-8.5 20.5v384q0 12 8.5 20.5t20.5 8.5t20 -8.5t8 -20.5v-140q19 22 50 37.5t66 15.5q105 0 105 -107v-190q0 -12 -8.5 -20.5
t-20.5 -8.5q-13 0 -21 8.5z" />
    <glyph glyph-name="uni02BC" unicode="&#x2bc;" horiz-adv-x="230" 
d="M92 454q-10 0 -16.5 6.5t-6.5 16.5q0 11 7 18q18 18 31 39.5t15 39.5q-6 -2 -14 -2q-21 0 -34.5 14.5t-13.5 36.5t15.5 38t37.5 16q26 0 44.5 -20.5t18.5 -55.5q0 -40 -18.5 -77t-50.5 -64q-6 -6 -15 -6z" />
    <glyph glyph-name="circumflex" unicode="&#x2c6;" horiz-adv-x="265" 
d="M132 662l-80 -105q-4 -7 -16 -7q-9 0 -15.5 6t-6.5 16q0 5 3 11l70 104q6 8 16 13.5t20 5.5h18q10 0 20 -5.5t16 -13.5l70 -104q3 -6 3 -11q0 -10 -6.5 -16t-15.5 -6q-12 0 -16 7z" />
    <glyph glyph-name="caron" unicode="&#x2c7;" horiz-adv-x="265" 
d="M243.5 700q6.5 -6 6.5 -16q0 -6 -3 -11l-70 -104q-6 -9 -15.5 -14t-20.5 -5h-18q-11 0 -20.5 5t-15.5 14l-70 104q-3 5 -3 11q0 10 6.5 16t15.5 6q11 0 16 -8l80 -104l80 104q5 8 16 8q9 0 15.5 -6z" />
    <glyph glyph-name="uni02C9" unicode="&#x2c9;" horiz-adv-x="363" 
d="M31 598q-7 7 -7 17t7 17t17 7h267q10 0 17 -7t7 -17t-7 -17t-17 -7h-267q-10 0 -17 7z" />
    <glyph glyph-name="uni02CB" unicode="&#x2cb;" horiz-adv-x="226" 
d="M47 660q-9 7 -9 19q0 11 7 18t18 7t18 -7l114 -111q7 -5 7 -14q0 -8 -6 -14t-14 -6q-9 0 -14 5z" />
    <glyph glyph-name="breve" unicode="&#x2d8;" horiz-adv-x="351" 
d="M88 568.5q-42 18.5 -74 53.5q-7 7 -7 17t7 17t17 7q13 0 18 -8q52 -57 127 -57q37 0 69.5 15t56.5 42q6 8 18 8q10 0 17 -7t7 -17q0 -8 -7 -17q-31 -35 -72 -53.5t-89 -18.5q-46 0 -88 18.5z" />
    <glyph glyph-name="dotaccent" unicode="&#x2d9;" horiz-adv-x="127" 
d="M31 644q14 14 33 14t32.5 -13.5t13.5 -33.5t-13.5 -33.5t-32.5 -13.5t-33 14t-14 33t14 33z" />
    <glyph glyph-name="ring" unicode="&#x2da;" horiz-adv-x="236" 
d="M49 711q29 29 69 29t69 -29t29 -70q0 -40 -29 -69t-69 -29q-41 0 -69.5 29t-28.5 69q0 41 29 70zM159.5 683q-16.5 17 -41.5 17q-24 0 -41 -17t-17 -42q0 -24 17 -41.5t41 -17.5t41 17.5t17 41.5q0 25 -16.5 42z" />
    <glyph glyph-name="ogonek" unicode="&#x2db;" horiz-adv-x="194" 
d="M43 -166.5q-29 19.5 -29 55.5q0 35 31.5 64.5t79.5 48.5q14 5 26 7t17 0.5t-1 -5.5q-42 -29 -61.5 -51t-19.5 -47q0 -18 12 -28.5t30 -10.5q9 0 16.5 2.5t10.5 2.5q10 0 17.5 -7t7.5 -18q0 -9 -5.5 -15.5t-10.5 -8.5q-25 -9 -52 -9q-40 0 -69 19.5z" />
    <glyph glyph-name="tilde" unicode="&#x2dc;" horiz-adv-x="313" 
d="M173.5 567.5q-15.5 13.5 -33.5 39.5q-13 20 -22.5 29.5t-24.5 9.5q-19 0 -32 -17.5t-16 -52.5q-1 -8 -7 -14t-15 -6q-10 0 -16.5 7.5t-5.5 16.5q5 52 30 83t66 31q26 0 41.5 -13.5t33.5 -39.5q15 -21 24 -30t24 -9q18 0 31 17.5t16 52.5q1 9 7.5 14.5t14.5 5.5
q10 0 17 -7t6 -17q-5 -53 -30 -83.5t-66 -30.5q-27 0 -42.5 13.5z" />
    <glyph glyph-name="hungarumlaut" unicode="&#x2dd;" horiz-adv-x="305" 
d="M18.5 555q-6.5 6 -6.5 15q0 7 4 12l75 113q9 12 22 12q11 0 18.5 -8t7.5 -19q0 -10 -5 -16l-84 -106q-8 -9 -17 -9q-8 0 -14.5 6zM160.5 555q-6.5 6 -6.5 15q0 7 4 12l75 113q9 12 22 12q11 0 18.5 -8t7.5 -19q0 -10 -5 -16l-84 -106q-8 -9 -17 -9q-8 0 -14.5 6z" />
    <glyph glyph-name="gravecomb" unicode="&#x300;" horiz-adv-x="0" 
d="M-179 660q-9 7 -9 19q0 11 7 18t18 7t18 -7l114 -111q7 -5 7 -14q0 -8 -6 -14t-14 -6q-9 0 -14 5z" />
    <glyph glyph-name="acutecomb" unicode="&#x301;" horiz-adv-x="0" 
d="M-182 552q-8 0 -14 6t-6 14q0 9 7 14l114 111q7 7 18 7q10 0 17.5 -7t7.5 -18q0 -12 -9 -19l-121 -103q-5 -5 -14 -5z" />
    <glyph glyph-name="uni0302" unicode="&#x302;" horiz-adv-x="0" 
d="M-133 662l-80 -105q-4 -7 -16 -7q-9 0 -15.5 6t-6.5 16q0 5 3 11l70 104q6 8 16 13.5t20 5.5h18q10 0 20 -5.5t16 -13.5l70 -104q3 -6 3 -11q0 -10 -6.5 -16t-15.5 -6q-12 0 -16 7z" />
    <glyph glyph-name="tildecomb" unicode="&#x303;" horiz-adv-x="0" 
d="M-139.5 567.5q-15.5 13.5 -33.5 39.5q-13 20 -22.5 29.5t-24.5 9.5q-19 0 -32 -17.5t-16 -52.5q-1 -8 -7 -14t-15 -6q-10 0 -16.5 7.5t-5.5 16.5q5 52 30 83t66 31q26 0 41.5 -13.5t33.5 -39.5q15 -21 24 -30t24 -9q18 0 31 17.5t16 52.5q1 9 7.5 14.5t14.5 5.5
q10 0 17 -7t6 -17q-5 -53 -30 -83.5t-66 -30.5q-27 0 -42.5 13.5z" />
    <glyph glyph-name="uni0304" unicode="&#x304;" horiz-adv-x="0" 
d="M-332 579q-7 7 -7 17t7 17t17 7h267q10 0 17 -7t7 -17t-7 -17t-17 -7h-267q-10 0 -17 7z" />
    <glyph glyph-name="uni0306" unicode="&#x306;" horiz-adv-x="0" 
d="M-263 568.5q-42 18.5 -74 53.5q-7 7 -7 17t7 17t17 7q13 0 18 -8q52 -57 127 -57q37 0 69.5 15t56.5 42q6 8 18 8q10 0 17 -7t7 -17q0 -8 -7 -17q-31 -35 -72 -53.5t-89 -18.5q-46 0 -88 18.5z" />
    <glyph glyph-name="uni0307" unicode="&#x307;" horiz-adv-x="0" 
d="M-96 644q14 14 33 14t32.5 -13.5t13.5 -33.5t-13.5 -33.5t-32.5 -13.5t-33 14t-14 33t14 33z" />
    <glyph glyph-name="uni0308" unicode="&#x308;" horiz-adv-x="0" 
d="M-342.5 580q-13.5 14 -13.5 33t13.5 32.5t32.5 13.5t32.5 -13.5t13.5 -32.5q0 -20 -13.5 -33.5t-32.5 -13.5t-32.5 14zM-136.5 580q-13.5 14 -13.5 33t14 32.5t33 13.5t32.5 -13.5t13.5 -32.5t-13.5 -33t-32.5 -14q-20 0 -33.5 14z" />
    <glyph glyph-name="uni0309" unicode="&#x309;" horiz-adv-x="0" 
d="M-53 558.5q-6 5.5 -6 13.5q0 7 3 14q10 17 10 39q0 25 -12.5 37.5t-33.5 12.5q-34 0 -47 -30q-7 -12 -19 -12q-9 0 -15.5 6.5t-6.5 15.5q0 6 3 12q13 22 34.5 35.5t50.5 13.5q39 0 65.5 -22.5t26.5 -67.5q0 -17 -4.5 -31t-15.5 -31q-6 -11 -19 -11q-8 0 -14 5.5z" />
    <glyph glyph-name="uni030A" unicode="&#x30a;" horiz-adv-x="0" 
d="M-187 711q29 29 69 29t69 -29t29 -70q0 -40 -29 -69t-69 -29q-41 0 -69.5 29t-28.5 69q0 41 29 70zM-76.5 683q-16.5 17 -41.5 17q-24 0 -41 -17t-17 -42q0 -24 17 -41.5t41 -17.5t41 17.5t17 41.5q0 25 -16.5 42z" />
    <glyph glyph-name="uni030B" unicode="&#x30b;" horiz-adv-x="0" 
d="M-286.5 555q-6.5 6 -6.5 15q0 7 4 12l75 113q9 12 22 12q11 0 18.5 -8t7.5 -19q0 -10 -5 -16l-84 -106q-8 -9 -17 -9q-8 0 -14.5 6zM-144.5 555q-6.5 6 -6.5 15q0 7 4 12l75 113q9 12 22 12q11 0 18.5 -8t7.5 -19q0 -10 -5 -16l-84 -106q-8 -9 -17 -9q-8 0 -14.5 6z" />
    <glyph glyph-name="uni030C" unicode="&#x30c;" horiz-adv-x="0" 
d="M-21.5 700q6.5 -6 6.5 -16q0 -6 -3 -11l-70 -104q-6 -9 -15.5 -14t-20.5 -5h-18q-11 0 -20.5 5t-15.5 14l-70 104q-3 5 -3 11q0 10 6.5 16t15.5 6q11 0 16 -8l80 -104l80 104q5 8 16 8q9 0 15.5 -6z" />
    <glyph glyph-name="dotbelowcomb" unicode="&#x323;" horiz-adv-x="0" 
d="M-96 -85q14 14 33 14t32.5 -14t13.5 -33q0 -20 -13 -33.5t-33 -13.5q-19 0 -33 13.5t-14 33.5q0 19 14 33z" />
    <glyph glyph-name="uni0326" unicode="&#x326;" horiz-adv-x="0" 
d="M-153.5 -265q-6.5 6 -6.5 15q0 7 11 18q16 15 27 35t13 37q-2 -2 -11 -2q-18 0 -30 12.5t-12 31.5q0 20 13.5 33.5t32.5 13.5q22 0 37.5 -18t15.5 -49q0 -36 -17 -69.5t-45 -57.5q-8 -6 -14 -6q-8 0 -14.5 6z" />
    <glyph glyph-name="uni0327" unicode="&#x327;" horiz-adv-x="0" 
d="M-153.5 -185q-23.5 6 -40.5 16q-11 7 -11 19q0 8 6 14.5t15 6.5q6 0 11 -4q31 -19 67 -19q25 0 43 11.5t18 30.5q0 16 -9.5 25.5t-27.5 9.5t-32 -11q-5 -5 -13 -5q-10 0 -16.5 6.5t-6.5 16.5q0 3 2 9l26 70h45l-26 -66q16 11 37 11q29 0 47.5 -18.5t18.5 -48.5
q0 -36 -30 -58t-74 -22q-26 0 -49.5 6z" />
    <glyph glyph-name="uni0328" unicode="&#x328;" horiz-adv-x="0" 
d="M-151 -166.5q-29 19.5 -29 55.5q0 35 31.5 64.5t79.5 48.5q14 5 26 7t17 0.5t-1 -5.5q-42 -29 -61.5 -51t-19.5 -47q0 -18 12 -28.5t30 -10.5q9 0 16.5 2.5t10.5 2.5q10 0 17.5 -7t7.5 -18q0 -9 -5.5 -15.5t-10.5 -8.5q-25 -9 -52 -9q-40 0 -69 19.5z" />
    <glyph glyph-name="uni037E" unicode="&#x37e;" horiz-adv-x="230" 
d="M76.5 396.5q-16.5 16.5 -16.5 38.5q0 23 16.5 39t38.5 16q23 0 39 -16t16 -39q0 -22 -16.5 -38.5t-38.5 -16.5t-38.5 16.5zM92 -123q-10 0 -16.5 6.5t-6.5 16.5q0 11 7 17q19 19 31.5 40t14.5 40q-6 -2 -14 -2q-21 0 -34.5 14.5t-13.5 36.5t15.5 38t37.5 16
q26 0 44.5 -20.5t18.5 -55.5q0 -40 -18.5 -77t-50.5 -64q-6 -6 -15 -6z" />
    <glyph glyph-name="tonos" unicode="&#x384;" horiz-adv-x="123" 
d="M21 573q-6 7 -5 15l14 156q1 13 11 22t23 9q15 0 25 -10t10 -24q0 -4 -2 -12l-42 -148q-1 -7 -6.5 -11t-13.5 -4t-14 7z" />
    <glyph glyph-name="dieresistonos" unicode="&#x385;" horiz-adv-x="390" 
d="M169.5 573.5q-6.5 7.5 -5.5 15.5l15 155q1 13 10.5 22t23.5 9t24.5 -10t10.5 -24q0 -4 -2 -12l-42 -148q-2 -6 -7.5 -10.5t-12.5 -4.5q-8 0 -14.5 7.5zM28 580q-14 14 -14 33t14 32.5t33 13.5t32.5 -13.5t13.5 -32.5t-13.5 -33t-32.5 -14t-33 14zM296.5 580
q-13.5 14 -13.5 33t13.5 32.5t32.5 13.5t33 -13.5t14 -32.5t-13.5 -33t-33.5 -14q-19 0 -32.5 14z" />
    <glyph glyph-name="Alphatonos" unicode="&#x386;" horiz-adv-x="658" 
d="M630 39q0 -18 -12.5 -30.5t-29.5 -12.5q-13 0 -24 7.5t-16 19.5l-48 125h-343l-48 -125q-4 -12 -14.5 -19.5t-24.5 -7.5q-18 0 -30.5 12.5t-12.5 29.5q0 5 4 17l230 570q8 21 26.5 33.5t41.5 12.5t41 -12.5t26 -33.5l231 -570q3 -15 3 -16zM186 222h286l-143 371zM99 472
q-6 7 -5 15l14 156q1 13 11 22t23 9q15 0 25 -10t10 -24q0 -4 -2 -12l-42 -148q-1 -7 -6.5 -11t-13.5 -4t-14 7z" />
    <glyph glyph-name="Epsilontonos" unicode="&#x388;" horiz-adv-x="613" 
d="M132.5 11.5q-11.5 11.5 -11.5 32.5v579q0 21 11.5 32.5t32.5 11.5h360q15 0 26.5 -11t11.5 -26t-11.5 -26t-26.5 -11h-321v-215h314q15 0 26.5 -11t11.5 -26t-11.5 -26t-26.5 -11h-314v-230h321q15 0 26.5 -11t11.5 -26t-11.5 -26t-26.5 -11h-360q-21 0 -32.5 11.5z
M-7 472q-6 7 -5 15l14 156q1 13 11 22t23 9q15 0 25 -10t10 -24q0 -4 -2 -12l-42 -148q-1 -7 -6.5 -11t-13.5 -4t-14 7z" />
    <glyph glyph-name="Etatonos" unicode="&#x389;" horiz-adv-x="755" 
d="M606 8q-12 12 -12 29v269h-390v-269q0 -16 -12 -28.5t-29 -12.5q-18 0 -30 12t-12 29v593q0 17 12 29t29 12t29.5 -12t12.5 -29v-250h390v250q0 17 12 29t30 12q17 0 29 -12t12 -29v-593q0 -17 -12 -29t-30 -12q-17 0 -29 12zM-7 472q-6 7 -5 15l14 156q1 13 11 22t23 9
q15 0 25 -10t10 -24q0 -4 -2 -12l-42 -148q-1 -7 -6.5 -11t-13.5 -4t-14 7z" />
    <glyph glyph-name="Iotatonos" unicode="&#x38a;" horiz-adv-x="282" 
d="M133 8q-12 12 -12 29v593q0 17 12 29t30 12q17 0 29 -12t12 -29v-593q0 -16 -12 -28.5t-29 -12.5q-18 0 -30 12zM-7 472q-6 7 -5 15l14 156q1 13 11 22t23 9q15 0 25 -10t10 -24q0 -4 -2 -12l-42 -148q-1 -7 -6.5 -11t-13.5 -4t-14 7z" />
    <glyph glyph-name="Omicrontonos" unicode="&#x38c;" horiz-adv-x="780" 
d="M107.5 509.5q41.5 78.5 117 123.5t172.5 45t172 -45t117 -123.5t42 -176.5t-42 -176.5t-117 -123.5t-172 -45t-172.5 45t-117 123.5t-41.5 176.5t41.5 176.5zM611.5 472.5q-30.5 61.5 -86 96.5t-128.5 35q-74 0 -129.5 -35t-85.5 -96.5t-30 -139.5q0 -77 30 -139t86 -97
t129 -35t128.5 35t86 97t30.5 139q0 78 -30.5 139.5zM-3 472q-6 7 -5 15l14 156q1 13 11 22t23 9q15 0 25 -10t10 -24q0 -4 -2 -12l-42 -148q-1 -7 -6.5 -11t-13.5 -4t-14 7z" />
    <glyph glyph-name="Upsilontonos" unicode="&#x38e;" horiz-adv-x="689" 
d="M640 609l-223 -327v-245q0 -17 -12.5 -29t-29.5 -12t-29 12t-12 29v245l-224 326q-7 8 -7 23q0 17 12 28.5t28 11.5q23 0 34 -18l198 -297l197 297q13 18 34 18q17 0 29 -12t12 -28q0 -11 -7 -22zM-3 472q-6 7 -5 15l14 156q1 13 11 22t23 9q15 0 25 -10t10 -24
q0 -4 -2 -12l-42 -148q-1 -7 -6.5 -11t-13.5 -4t-14 7z" />
    <glyph glyph-name="Omegatonos" unicode="&#x38f;" horiz-adv-x="786" 
d="M114.5 185q-41.5 69 -41.5 163q0 95 41.5 170t117 117.5t172.5 42.5t172.5 -42.5t117 -117.5t41.5 -170q0 -94 -41 -163t-110 -111h101q15 0 26 -11t11 -26t-11 -26t-26 -11h-169q-17 0 -30 12.5t-13 30.5q0 13 7.5 23.5t18.5 15.5q65 26 107.5 91.5t42.5 160.5
q0 75 -28.5 136t-84 97t-132.5 36t-132.5 -36t-84 -97t-28.5 -136q0 -95 43 -160.5t108 -91.5q11 -5 18.5 -15.5t7.5 -23.5q0 -18 -13 -30.5t-30 -12.5h-169q-15 0 -26 11t-11 26t11 26t26 11h102q-70 42 -111.5 111zM-3 472q-6 7 -5 15l14 156q1 13 11 22t23 9q15 0 25 -10
t10 -24q0 -4 -2 -12l-42 -148q-1 -7 -6.5 -11t-13.5 -4t-14 7z" />
    <glyph glyph-name="iotadieresistonos" unicode="&#x390;" horiz-adv-x="239" 
d="M102 17q-27 29 -27 84v349q0 15 11 26t27 11q15 0 26 -11t11 -26v-337q0 -25 10.5 -41t28.5 -17l7 -1q13 -1 20 -11t7 -22q0 -13 -9 -22.5t-22 -10.5h-10q-53 0 -80 29zM100.5 593.5q-6.5 7.5 -5.5 15.5l15 155q1 13 10.5 22t23.5 9t24.5 -10t10.5 -24q0 -4 -2 -12
l-42 -148q-2 -6 -7.5 -10.5t-12.5 -4.5q-8 0 -14.5 7.5zM-41 600q-14 14 -14 33t14 32.5t33 13.5t32.5 -13.5t13.5 -32.5t-13.5 -33t-32.5 -14t-33 14zM227.5 600q-13.5 14 -13.5 33t13.5 32.5t32.5 13.5t33 -13.5t14 -32.5t-13.5 -33t-33.5 -14q-19 0 -32.5 14z" />
    <glyph glyph-name="Alpha" unicode="&#x391;" horiz-adv-x="658" 
d="M630 39q0 -18 -12.5 -30.5t-29.5 -12.5q-13 0 -24 7.5t-16 19.5l-48 125h-343l-48 -125q-4 -12 -14.5 -19.5t-24.5 -7.5q-18 0 -30.5 12.5t-12.5 29.5q0 5 4 17l230 570q8 21 26.5 33.5t41.5 12.5t41 -12.5t26 -33.5l231 -570q3 -15 3 -16zM186 222h286l-143 371z" />
    <glyph glyph-name="Beta" unicode="&#x392;" horiz-adv-x="629" 
d="M89.5 11.5q-11.5 11.5 -11.5 32.5v579q0 21 11.5 32.5t32.5 11.5h253q86 0 136.5 -47t50.5 -123q0 -60 -34 -101.5t-83 -51.5q35 -5 65 -29t47.5 -60t17.5 -75q0 -81 -51.5 -130.5t-141.5 -49.5h-260q-21 0 -32.5 11.5zM361 378q55 0 85 30t30 77t-30.5 77.5t-84.5 30.5
h-200v-215h200zM365 74q58 0 91 31t33 84q0 49 -32.5 82t-91.5 33h-204v-230h204z" />
    <glyph glyph-name="Gamma" unicode="&#x393;" horiz-adv-x="544" 
d="M90 8q-12 12 -12 29v586q0 21 11.5 32.5t32.5 11.5h360q15 0 26.5 -11t11.5 -26t-11.5 -26t-26.5 -11h-321v-556q0 -16 -12 -28.5t-29 -12.5q-18 0 -30 12z" />
    <glyph glyph-name="uni0394" unicode="&#x394;" horiz-adv-x="658" 
d="M35 8.5q-10 8.5 -10 23.5q0 11 4 20l232 573q8 20 26.5 33t41.5 13t41.5 -12.5t26.5 -33.5l231 -573q4 -11 4 -21q0 -14 -10 -22.5t-29 -8.5h-529q-19 0 -29 8.5zM329 581l-201 -507h402z" />
    <glyph glyph-name="Epsilon" unicode="&#x395;" horiz-adv-x="569" 
d="M89.5 11.5q-11.5 11.5 -11.5 32.5v579q0 21 11.5 32.5t32.5 11.5h360q15 0 26.5 -11t11.5 -26t-11.5 -26t-26.5 -11h-321v-215h314q15 0 26.5 -11t11.5 -26t-11.5 -26t-26.5 -11h-314v-230h321q15 0 26.5 -11t11.5 -26t-11.5 -26t-26.5 -11h-360q-21 0 -32.5 11.5z" />
    <glyph glyph-name="Zeta" unicode="&#x396;" horiz-adv-x="585" 
d="M57 14q-14 14 -14 34q0 15 10 28l370 517h-343q-15 0 -26 11t-11 26t11 26t26 11h406q20 0 34 -14t14 -34q0 -15 -10 -28l-370 -517h350q15 0 26 -11t11 -26t-11 -26t-26 -11h-413q-20 0 -34 14z" />
    <glyph glyph-name="Eta" unicode="&#x397;" horiz-adv-x="712" 
d="M563 8q-12 12 -12 29v269h-390v-269q0 -16 -12 -28.5t-29 -12.5q-18 0 -30 12t-12 29v593q0 17 12 29t29 12t29.5 -12t12.5 -29v-250h390v250q0 17 12 29t30 12q17 0 29 -12t12 -29v-593q0 -17 -12 -29t-30 -12q-17 0 -29 12z" />
    <glyph glyph-name="Theta" unicode="&#x398;" horiz-adv-x="765" 
d="M92.5 509.5q41.5 78.5 117 123.5t172.5 45t172 -45t117 -123.5t42 -176.5t-42 -176.5t-117 -123.5t-172 -45t-172.5 45t-117 123.5t-41.5 176.5t41.5 176.5zM596.5 472.5q-30.5 61.5 -86 96.5t-128.5 35q-74 0 -129.5 -35t-85.5 -96.5t-30 -139.5q0 -77 30 -139t86 -97
t129 -35t128.5 35t86 97t30.5 139q0 78 -30.5 139.5zM202.5 315q-11.5 11 -11.5 26t11.5 26t26.5 11h307q15 0 26 -11t11 -26t-11 -26t-26 -11h-307q-15 0 -26.5 11z" />
    <glyph glyph-name="Iota" unicode="&#x399;" horiz-adv-x="239" 
d="M90 8q-12 12 -12 29v593q0 17 12 29t30 12q17 0 29 -12t12 -29v-593q0 -16 -12 -28.5t-29 -12.5q-18 0 -30 12z" />
    <glyph glyph-name="Kappa" unicode="&#x39a;" horiz-adv-x="601" 
d="M560 36q0 -17 -11 -28.5t-27 -11.5q-18 0 -30 12l-264 289l-67 -71v-189q0 -17 -12.5 -29t-29.5 -12t-29 12t-12 29v593q0 17 12 29t29 12t29.5 -12t12.5 -29v-309l306 337q10 13 29 13q16 0 28 -11t12 -27q0 -14 -11 -27l-242 -258l266 -286q11 -11 11 -26z" />
    <glyph glyph-name="Lambda" unicode="&#x39b;" horiz-adv-x="658" 
d="M561 4q-11 8 -16 20l-216 557l-216 -557q-5 -12 -16.5 -20t-24.5 -8q-19 0 -31.5 13t-12.5 31q0 9 3 16l230 569q8 21 26.5 33.5t41.5 12.5t41 -12.5t26 -33.5l230 -569q4 -7 4 -16q0 -18 -13 -31t-31 -13q-14 0 -25 8z" />
    <glyph glyph-name="Mu" unicode="&#x39c;" horiz-adv-x="809" 
d="M660.5 8.5q-12.5 12.5 -12.5 28.5v518l-221 -542q-6 -17 -23 -17t-23 17l-220 542v-518q0 -16 -12 -28.5t-29 -12.5q-18 0 -30 12t-12 29v564q0 29 20.5 49.5t49.5 20.5q22 0 39.5 -12t25.5 -32l191 -471l192 471q8 20 25.5 32t39.5 12q29 0 49.5 -20.5t20.5 -49.5v-564
q0 -17 -12 -29t-30 -12q-16 0 -28.5 12.5z" />
    <glyph glyph-name="Nu" unicode="&#x39d;" horiz-adv-x="708" 
d="M555 1.5q-11 5.5 -18 15.5l-376 521v-501q0 -16 -12 -28.5t-29 -12.5q-18 0 -30 12t-12 29v580q0 22 16 38t38 16q28 0 44 -22l371 -509v490q0 17 12.5 29t28.5 12q18 0 30 -12t12 -29v-583q0 -21 -15 -36t-36 -15q-13 0 -24 5.5z" />
    <glyph glyph-name="Xi" unicode="&#x39e;" horiz-adv-x="615" 
d="M61 604q-11 11 -11 26t11 26t26 11h441q15 0 26 -11t11 -26t-11 -26t-26 -11h-441q-15 0 -26 11zM68 315q-11 11 -11 26t11 26t26 11h427q15 0 26 -11t11 -26t-11 -26t-26 -11h-427q-15 0 -26 11zM61 11q-11 11 -11 26t11 26t26 11h440q15 0 26 -11t11 -26t-11 -26
t-26 -11h-440q-15 0 -26 11z" />
    <glyph glyph-name="Omicron" unicode="&#x39f;" horiz-adv-x="765" 
d="M92.5 509.5q41.5 78.5 117 123.5t172.5 45t172 -45t117 -123.5t42 -176.5t-42 -176.5t-117 -123.5t-172 -45t-172.5 45t-117 123.5t-41.5 176.5t41.5 176.5zM596.5 472.5q-30.5 61.5 -86 96.5t-128.5 35q-74 0 -129.5 -35t-85.5 -96.5t-30 -139.5q0 -77 30 -139t86 -97
t129 -35t128.5 35t86 97t30.5 139q0 78 -30.5 139.5z" />
    <glyph glyph-name="Pi" unicode="&#x3a0;" horiz-adv-x="712" 
d="M563 8q-12 12 -12 29v556h-390v-556q0 -16 -12 -28.5t-29 -12.5q-18 0 -30 12t-12 29v586q0 21 11.5 32.5t32.5 11.5h468q21 0 32.5 -11.5t11.5 -32.5v-586q0 -17 -12 -29t-30 -12q-17 0 -29 12z" />
    <glyph glyph-name="Rho" unicode="&#x3a1;" horiz-adv-x="587" 
d="M90 8q-12 12 -12 29v586q0 21 11.5 32.5t32.5 11.5h224q65 0 112.5 -27t72 -73t24.5 -101t-25 -101t-72.5 -73t-111.5 -27h-185v-228q0 -16 -12 -28.5t-29 -12.5q-18 0 -30 12zM432 557.5q-37 35.5 -96 35.5h-175v-254h175q59 0 96 35.5t37 91.5t-37 91.5z" />
    <glyph glyph-name="Sigma" unicode="&#x3a3;" horiz-adv-x="575" 
d="M488 74q15 0 26.5 -11t11.5 -26t-11.5 -26t-26.5 -11h-388q-20 0 -35 14.5t-15 35.5q0 18 13 33l222 259l-221 241q-13 15 -13 35t14.5 34.5t35.5 14.5h387q15 0 26.5 -11t11.5 -26t-11.5 -26t-26.5 -11h-331l200 -219q15 -16 15 -32q0 -14 -14 -30l-204 -238h334z" />
    <glyph glyph-name="Tau" unicode="&#x3a4;" horiz-adv-x="570" 
d="M255.5 8q-12.5 12 -12.5 29v556h-178q-15 0 -26 11t-11 26t11 26t26 11h440q15 0 26 -11t11 -26t-11 -26t-26 -11h-179v-556q0 -17 -12 -29t-29 -12t-29.5 12z" />
    <glyph glyph-name="Upsilon" unicode="&#x3a5;" horiz-adv-x="626" 
d="M578 609l-223 -327v-245q0 -17 -12.5 -29t-29.5 -12t-29 12t-12 29v245l-224 326q-7 8 -7 23q0 17 12 28.5t28 11.5q23 0 34 -18l198 -297l197 297q13 18 34 18q17 0 29 -12t12 -28q0 -11 -7 -22z" />
    <glyph glyph-name="Phi" unicode="&#x3a6;" horiz-adv-x="806" 
d="M717.5 200q-37.5 -58 -108 -93t-165.5 -41v-29q0 -17 -12 -29t-29 -12t-29.5 12t-12.5 29v29q-95 6 -165 41t-107.5 93t-37.5 133q0 74 37.5 132.5t107.5 93.5t165 41v30q0 17 12.5 29t29.5 12t29 -12t12 -29v-30q95 -6 165.5 -41t108 -93t37.5 -133t-37.5 -133zM196 200
q59 -52 165 -60v386q-106 -8 -165 -60t-59 -133t59 -133zM609.5 200q59.5 52 59.5 133t-59.5 133t-165.5 60v-386q106 8 165.5 60z" />
    <glyph glyph-name="Chi" unicode="&#x3a7;" horiz-adv-x="652" 
d="M622 37q0 -17 -11.5 -29t-29.5 -12q-21 0 -31 13l-224 272l-224 -272q-10 -13 -31 -13q-18 0 -29.5 12t-11.5 29q0 11 10 25l236 281l-221 261q-9 13 -9 26q0 16 11 28.5t28 12.5q21 0 32 -14l209 -254l209 254q11 14 31 14q17 0 28.5 -12.5t11.5 -28.5q0 -14 -9 -25
l-221 -262l236 -281q10 -14 10 -25z" />
    <glyph glyph-name="Psi" unicode="&#x3a8;" horiz-adv-x="796" 
d="M646.5 658.5q12.5 12.5 29.5 12.5t29.5 -12.5t12.5 -29.5v-233q0 -119 -71 -190t-207 -80v-89q0 -17 -12.5 -29t-29.5 -12t-29 12t-12 29v88q-137 10 -208 81t-71 189v235q0 17 12 29t30 12q17 0 29 -12t12 -29v-233q0 -86 50.5 -137t145.5 -59v429q0 17 12 29t30 12
q17 0 29 -12t12 -29v-429q95 8 144.5 59t49.5 137v232q0 17 12.5 29.5z" />
    <glyph glyph-name="uni03A9" unicode="&#x3a9;" horiz-adv-x="765" 
d="M92.5 185q-41.5 69 -41.5 163q0 95 41.5 170t117 117.5t172.5 42.5t172.5 -42.5t117 -117.5t41.5 -170q0 -94 -41 -163t-110 -111h101q15 0 26 -11t11 -26t-11 -26t-26 -11h-169q-17 0 -30 12.5t-13 30.5q0 13 7.5 23.5t18.5 15.5q65 26 107.5 91.5t42.5 160.5
q0 75 -28.5 136t-84 97t-132.5 36t-132.5 -36t-84 -97t-28.5 -136q0 -95 43 -160.5t108 -91.5q11 -5 18.5 -15.5t7.5 -23.5q0 -18 -13 -30.5t-30 -12.5h-169q-15 0 -26 11t-11 26t11 26t26 11h102q-70 42 -111.5 111z" />
    <glyph glyph-name="Iotadieresis" unicode="&#x3aa;" horiz-adv-x="239" 
d="M90 8q-12 12 -12 29v593q0 17 12 29t30 12q17 0 29 -12t12 -29v-593q0 -16 -12 -28.5t-29 -12.5q-18 0 -30 12zM-15.5 747q-13.5 14 -13.5 33t13.5 32.5t32.5 13.5t32.5 -13.5t13.5 -32.5q0 -20 -13.5 -33.5t-32.5 -13.5t-32.5 14zM190.5 747q-13.5 14 -13.5 33t14 32.5
t33 13.5t32.5 -13.5t13.5 -32.5t-13.5 -33t-32.5 -14q-20 0 -33.5 14z" />
    <glyph glyph-name="Upsilondieresis" unicode="&#x3ab;" horiz-adv-x="626" 
d="M578 609l-223 -327v-245q0 -17 -12.5 -29t-29.5 -12t-29 12t-12 29v245l-224 326q-7 8 -7 23q0 17 12 28.5t28 11.5q23 0 34 -18l198 -297l197 297q13 18 34 18q17 0 29 -12t12 -28q0 -11 -7 -22zM177.5 747q-13.5 14 -13.5 33t13.5 32.5t32.5 13.5t32.5 -13.5
t13.5 -32.5q0 -20 -13.5 -33.5t-32.5 -13.5t-32.5 14zM383.5 747q-13.5 14 -13.5 33t14 32.5t33 13.5t32.5 -13.5t13.5 -32.5t-13.5 -33t-32.5 -14q-20 0 -33.5 14z" />
    <glyph glyph-name="alphatonos" unicode="&#x3ac;" horiz-adv-x="589" 
d="M566 43q7 -10 7 -22q0 -13 -9 -22.5t-22 -10.5h-10q-46 0 -72.5 23t-31.5 67q-26 -40 -70 -65t-96 -25q-63 0 -111.5 30.5t-76 88t-27.5 134.5q0 76 27 133.5t76 89t112 31.5q48 0 90 -22.5t72 -62.5v40q0 15 11 26t27 11t27 -11t11 -26v-337q0 -26 10.5 -41.5
t28.5 -16.5l7 -1q13 -1 20 -11zM425 350q-21 33 -61.5 55.5t-83.5 22.5q-71 0 -113 -52.5t-42 -134.5t42 -134t113 -52q44 0 84 22t61 54v219zM278 593q-6 7 -5 15l14 156q1 13 11 22t23 9q15 0 25 -10t10 -24q0 -4 -2 -12l-42 -148q-1 -7 -6.5 -11t-13.5 -4t-14 7z" />
    <glyph glyph-name="epsilontonos" unicode="&#x3ad;" horiz-adv-x="485" 
d="M100.5 27.5q-54.5 39.5 -54.5 101.5q0 54 40.5 84t88.5 34q-46 6 -82.5 37t-36.5 81q0 60 54 94.5t144 34.5q104 0 173 -60q10 -10 10 -24q0 -13 -8.5 -22t-21.5 -9q-10 0 -19 7q-27 24 -59 35.5t-74 11.5q-53 0 -87 -21.5t-34 -55.5q0 -39 34.5 -60t91.5 -21h54
q15 0 24.5 -8.5t9.5 -22.5t-9.5 -22t-23.5 -8h-55q-135 0 -135 -80q0 -38 34 -61t93 -23q79 0 140 50q9 7 20 7q14 0 24 -10t10 -24q0 -16 -14 -27q-72 -58 -180 -58q-97 0 -151.5 39.5zM245 593q-6 7 -5 15l14 156q1 13 11 22t23 9q15 0 25 -10t10 -24q0 -4 -2 -12
l-42 -148q-1 -7 -6.5 -11t-13.5 -4t-14 7z" />
    <glyph glyph-name="etatonos" unicode="&#x3ae;" 
d="M476 339v-490q0 -15 -11 -26t-26 -11q-16 0 -27 11t-11 26v467q0 61 -28 86.5t-80 25.5q-42 0 -81.5 -22t-61.5 -53v-320q0 -15 -11 -26t-26 -11q-16 0 -27 11t-11 26v417q0 15 11 26t26 11q16 0 27 -11t11 -26v-38q28 34 74 58.5t98 24.5q154 0 154 -156zM264 593
q-6 7 -5 15l14 156q1 13 11 22t23 9q15 0 25 -10t10 -24q0 -4 -2 -12l-42 -148q-1 -7 -6.5 -11t-13.5 -4t-14 7z" />
    <glyph glyph-name="iotatonos" unicode="&#x3af;" horiz-adv-x="239" 
d="M102 17q-27 29 -27 84v349q0 15 11 26t27 11q15 0 26 -11t11 -26v-337q0 -25 10.5 -41t28.5 -17l7 -1q13 -1 20 -11t7 -22q0 -13 -9 -22.5t-22 -10.5h-10q-53 0 -80 29zM100 593q-6 7 -5 15l14 156q1 13 11 22t23 9q15 0 25 -10t10 -24q0 -4 -2 -12l-42 -148
q-1 -7 -6.5 -11t-13.5 -4t-14 7z" />
    <glyph glyph-name="upsilondieresistonos" unicode="&#x3b0;" horiz-adv-x="562" 
d="M126 48q-51 60 -51 164v238q0 15 11 26t27 11q15 0 26 -11t11 -26v-237q0 -74 33 -116t92 -42q75 0 118 55.5t43 139.5q0 104 -52 184q-5 8 -5 18q0 16 10.5 26.5t26.5 10.5q21 0 32 -18q33 -47 50 -104t17 -117q0 -75 -29.5 -134.5t-84 -93.5t-126.5 -34q-98 0 -149 60z
M263.5 593.5q-6.5 7.5 -5.5 15.5l15 155q1 13 10.5 22t23.5 9t24.5 -10t10.5 -24q0 -4 -2 -12l-42 -148q-2 -6 -7.5 -10.5t-12.5 -4.5q-8 0 -14.5 7.5zM122 600q-14 14 -14 33t14 32.5t33 13.5t32.5 -13.5t13.5 -32.5t-13.5 -33t-32.5 -14t-33 14zM390.5 600
q-13.5 14 -13.5 33t13.5 32.5t32.5 13.5t33 -13.5t14 -32.5t-13.5 -33t-33.5 -14q-19 0 -32.5 14z" />
    <glyph glyph-name="alpha" unicode="&#x3b1;" horiz-adv-x="589" 
d="M566 43q7 -10 7 -22q0 -13 -9 -22.5t-22 -10.5h-10q-46 0 -72.5 23t-31.5 67q-26 -40 -70 -65t-96 -25q-63 0 -111.5 30.5t-76 88t-27.5 134.5q0 76 27 133.5t76 89t112 31.5q48 0 90 -22.5t72 -62.5v40q0 15 11 26t27 11t27 -11t11 -26v-337q0 -26 10.5 -41.5
t28.5 -16.5l7 -1q13 -1 20 -11zM425 350q-21 33 -61.5 55.5t-83.5 22.5q-71 0 -113 -52.5t-42 -134.5t42 -134t113 -52q44 0 84 22t61 54v219z" />
    <glyph glyph-name="beta" unicode="&#x3b2;" horiz-adv-x="575" 
d="M139 -177q-11 -11 -26 -11q-16 0 -27 11t-11 26v606q0 74 32.5 124t84 74t111.5 24q92 0 151 -47.5t59 -130.5q0 -66 -42.5 -105.5t-96.5 -49.5q34 -3 69.5 -22.5t60 -57.5t24.5 -91q0 -54 -27 -96t-74 -65.5t-106 -23.5q-55 0 -99 22.5t-72 61.5v-223q0 -15 -11 -26z
M212.5 76.5q40.5 -21.5 86.5 -21.5q72 0 111.5 35t39.5 94q0 61 -44.5 92.5t-112.5 30.5q-16 1 -27 12.5t-12 27.5q1 11 12 19t25 10q62 -1 102.5 29t40.5 87q0 54 -37.5 86t-93.5 32q-65 0 -109 -40.5t-44 -114.5v-324q22 -33 62.5 -54.5z" />
    <glyph glyph-name="gamma" unicode="&#x3b3;" horiz-adv-x="490" 
d="M219 -177q-11 11 -11 26v102q0 131 -47 258t-123 224q-7 11 -7 21q0 13 10.5 23t24.5 10q17 0 26 -12q63 -72 110.5 -180.5t57.5 -201.5q51 71 86 168t40 192q1 14 12 24t25 10q16 0 27.5 -11.5t10.5 -28.5q-8 -112 -56 -229.5t-122 -212.5v-156q0 -15 -11 -26t-27 -11
q-15 0 -26 11z" />
    <glyph glyph-name="delta" unicode="&#x3b4;" horiz-adv-x="572" 
d="M410.5 420q46.5 -23 80.5 -71.5t34 -128.5q0 -60 -29 -113.5t-82.5 -86t-124.5 -32.5q-72 0 -127 33t-85 87t-30 115q0 74 38 128t102 81q-38 18 -59.5 43t-21.5 65q0 38 21 70t61.5 50.5t96.5 18.5q92 0 159 -53q13 -10 13 -25q0 -13 -9 -22.5t-22 -9.5q-11 0 -18 7
q-50 42 -123 42q-49 0 -78 -21.5t-29 -54.5q0 -29 27 -44t88 -33q71 -22 117.5 -45zM374.5 79.5q37.5 24.5 57.5 62.5t20 78q0 56 -25 91t-62.5 54t-95.5 37q-70 -21 -107 -68t-37 -111q0 -41 19.5 -80t56.5 -63.5t86 -24.5q50 0 87.5 24.5z" />
    <glyph glyph-name="epsilon" unicode="&#x3b5;" horiz-adv-x="485" 
d="M100.5 27.5q-54.5 39.5 -54.5 101.5q0 54 40.5 84t88.5 34q-46 6 -82.5 37t-36.5 81q0 60 54 94.5t144 34.5q104 0 173 -60q10 -10 10 -24q0 -13 -8.5 -22t-21.5 -9q-10 0 -19 7q-27 24 -59 35.5t-74 11.5q-53 0 -87 -21.5t-34 -55.5q0 -39 34.5 -60t91.5 -21h54
q15 0 24.5 -8.5t9.5 -22.5t-9.5 -22t-23.5 -8h-55q-135 0 -135 -80q0 -38 34 -61t93 -23q79 0 140 50q9 7 20 7q14 0 24 -10t10 -24q0 -16 -14 -27q-72 -58 -180 -58q-97 0 -151.5 39.5z" />
    <glyph glyph-name="zeta" unicode="&#x3b6;" horiz-adv-x="489" 
d="M119.5 55q-72.5 55 -72.5 156q0 116 79 214.5t221 175.5h-255q-14 0 -24 10t-10 23t10 23t24 10h321q15 0 25.5 -10.5t10.5 -25.5q0 -10 -5 -18t-13 -13q-306 -178 -306 -384q0 -75 52.5 -112t145.5 -37q127 0 127 -101q0 -41 -34 -107q-4 -9 -12.5 -14.5t-19.5 -5.5
q-15 0 -25.5 10.5t-10.5 24.5q0 7 4 15q19 41 19 63t-14 35t-43 13q-122 0 -194.5 55z" />
    <glyph glyph-name="eta" unicode="&#x3b7;" 
d="M476 339v-490q0 -15 -11 -26t-26 -11q-16 0 -27 11t-11 26v467q0 61 -28 86.5t-80 25.5q-42 0 -81.5 -22t-61.5 -53v-320q0 -15 -11 -26t-26 -11q-16 0 -27 11t-11 26v417q0 15 11 26t26 11q16 0 27 -11t11 -26v-38q28 34 74 58.5t98 24.5q154 0 154 -156z" />
    <glyph glyph-name="theta" unicode="&#x3b8;" horiz-adv-x="572" 
d="M417.5 633.5q53.5 -45.5 80.5 -123.5t27 -176t-27 -176.5t-80.5 -124t-131.5 -45.5t-131.5 45.5t-80.5 124t-27 176.5t27 176t80.5 123.5t131.5 45.5t131.5 -45.5zM170 545.5q-39 -66.5 -44 -177.5h320q-5 112 -43.5 178t-116.5 66q-77 0 -116 -66.5zM402.5 122
q38.5 67 43.5 180h-320q5 -113 43.5 -180t116.5 -67t116.5 67z" />
    <glyph glyph-name="iota" unicode="&#x3b9;" horiz-adv-x="239" 
d="M102 17q-27 29 -27 84v349q0 15 11 26t27 11q15 0 26 -11t11 -26v-337q0 -25 10.5 -41t28.5 -17l7 -1q13 -1 20 -11t7 -22q0 -13 -9 -22.5t-22 -10.5h-10q-53 0 -80 29z" />
    <glyph glyph-name="kappa" unicode="&#x3ba;" horiz-adv-x="514" 
d="M475 34q0 -16 -10.5 -27t-26.5 -11q-18 0 -29 12l-177 208l-82 -76v-107q0 -15 -11 -26t-27 -11q-15 0 -26 11t-11 26v417q0 15 11 26t27 11q15 0 26 -11t11 -26v-225l261 253q9 9 24 9q14 0 24 -10.5t10 -24.5t-10 -24l-173 -166l180 -203q9 -10 9 -25z" />
    <glyph glyph-name="lambda" unicode="&#x3bb;" horiz-adv-x="490" 
d="M411 2.5q-10 6.5 -14 16.5l-152 377l-153 -377q-4 -10 -13.5 -16.5t-21.5 -6.5q-16 0 -26.5 11t-10.5 27q0 5 2 13l183 440l-32 73q-12 29 -29 40.5t-43 11.5q-10 0 -16 -1q-14 -1 -25 8.5t-11 24.5q0 13 9 22t21 11q8 2 24 2q50 -1 85.5 -24t56.5 -74l222 -532
q3 -7 3 -15q0 -16 -11 -27t-27 -11q-11 0 -21 6.5z" />
    <glyph glyph-name="uni03BC" unicode="&#x3bc;" horiz-adv-x="565" 
d="M542 43q7 -10 7 -22q0 -13 -9 -22.5t-22 -10.5h-10q-89 0 -105 87q-27 -38 -67.5 -62.5t-84.5 -24.5q-75 0 -101 48v-187q0 -15 -11 -26t-27 -11q-15 0 -26 11t-11 26v601q0 15 11 26t27 11q15 0 26 -11t11 -26v-285q0 -112 110 -112q41 0 80 22t61 53v322q0 15 11 26
t26 11q16 0 27 -11t11 -26v-337q0 -26 10.5 -41.5t28.5 -16.5l7 -1q13 -1 20 -11z" />
    <glyph glyph-name="nu" unicode="&#x3bd;" horiz-adv-x="490" 
d="M212.5 6.5q-15.5 10.5 -22.5 27.5l-167 402q-3 6 -3 13q0 16 10.5 27t26.5 11q12 0 21.5 -6.5t13.5 -16.5l156 -388q60 82 96.5 181t41.5 196q1 14 12 24t25 10q16 0 27.5 -11.5t10.5 -28.5q-7 -104 -50.5 -216t-111.5 -209q-8 -12 -21.5 -19t-29.5 -7q-20 0 -35.5 10.5z
" />
    <glyph glyph-name="xi" unicode="&#x3be;" horiz-adv-x="489" 
d="M89.5 282q42.5 41 94.5 51q-48 8 -87.5 41t-39.5 89q0 44 31 82.5t77 55.5h-71q-13 0 -23 10t-10 23q0 14 10 23.5t23 9.5h314q13 0 23 -10t10 -23t-10 -23t-23 -10h-159q-49 -11 -81 -45.5t-32 -74.5q0 -51 43.5 -78.5t108.5 -27.5h114q14 0 23.5 -9.5t9.5 -23.5
q0 -13 -9.5 -22.5t-23.5 -9.5h-114q-73 0 -118 -30.5t-45 -93.5q0 -60 51 -90t147 -30q127 0 127 -100q0 -22 -8.5 -47t-25.5 -60q-4 -9 -12.5 -14.5t-19.5 -5.5q-15 0 -26 10.5t-11 25.5q0 5 1 8.5t2 6.5q21 45 21 70q0 20 -13.5 30t-43.5 10q-130 0 -198.5 43.5
t-68.5 128.5q0 69 42.5 110z" />
    <glyph glyph-name="omicron" unicode="&#x3bf;" horiz-adv-x="572" 
d="M160 22q-54 34 -83.5 92t-29.5 128t29.5 128t83.5 91.5t126 33.5t126 -33.5t83.5 -91.5t29.5 -128t-29.5 -128t-83.5 -92t-126 -34t-126 34zM372 80.5q36 25.5 55 68.5t19 93t-19 92.5t-55 68t-86 25.5t-86.5 -25.5t-55.5 -68t-19 -92.5t19 -93t55.5 -68.5t86.5 -25.5
t86 25.5z" />
    <glyph glyph-name="pi" unicode="&#x3c0;" horiz-adv-x="582" 
d="M566.5 473.5q9.5 -9.5 9.5 -23.5q0 -13 -9.5 -23t-23.5 -10h-51v-384q0 -15 -11 -26t-27 -11q-15 0 -26 11t-11 26v384h-252v-384q0 -15 -11 -26t-26 -11q-16 0 -27 11t-11 26v384h-51q-13 0 -23 10t-10 23q0 14 10 23.5t23 9.5h504q14 0 23.5 -9.5z" />
    <glyph glyph-name="rho" unicode="&#x3c1;" horiz-adv-x="572" 
d="M150 -151q0 -15 -11 -26t-26 -11q-16 0 -27 11t-11 26v393q0 70 27.5 128t78.5 91.5t119 33.5q69 0 120.5 -33.5t79.5 -91.5t28 -128q0 -77 -27 -134.5t-76 -88.5t-112 -31q-49 0 -91.5 22t-71.5 63v-224zM431.5 334.5q-17.5 42.5 -51.5 68t-81 25.5q-46 0 -80 -25.5
t-51.5 -68t-17.5 -92.5v-109q20 -33 60.5 -55.5t83.5 -22.5q71 0 113 52.5t42 134.5q0 50 -17.5 92.5z" />
    <glyph glyph-name="uni03C2" unicode="&#x3c2;" horiz-adv-x="483" 
d="M77.5 371q30.5 58 85 91t125.5 33q50 0 87.5 -15.5t67.5 -44.5q11 -11 11 -25t-10 -24t-24 -10q-13 0 -22 9q-43 43 -106 43q-76 0 -121.5 -52t-45.5 -134q0 -90 52.5 -132.5t142.5 -42.5q67 0 98.5 -21t31.5 -68t-33 -119q-5 -9 -13.5 -14.5t-18.5 -5.5
q-14 0 -24.5 10.5t-10.5 24.5q0 6 3 14q22 47 22 76q0 20 -14.5 28t-44.5 8q-124 0 -196.5 63t-72.5 179q0 71 30.5 129z" />
    <glyph glyph-name="sigma" unicode="&#x3c3;" horiz-adv-x="572" 
d="M541 426q-10 -10 -24 -10h-85q43 -34 65.5 -79.5t22.5 -111.5q0 -65 -28 -119t-81.5 -86t-124.5 -32q-72 0 -126 34t-83.5 92t-29.5 128q0 67 30 122t87 87t135 32h218q14 0 24 -10t10 -23q0 -14 -10 -24zM371.5 80q36.5 25 55.5 66.5t19 89.5q0 62 -27.5 109.5
t-72.5 70.5h-47q-55 0 -94.5 -24.5t-59.5 -64t-20 -85.5q0 -50 19 -93t55.5 -68.5t86.5 -25.5q49 0 85.5 25z" />
    <glyph glyph-name="tau" unicode="&#x3c4;" horiz-adv-x="458" 
d="M427 473q10 -10 10 -23t-10 -23t-24 -10h-142v-300q0 -28 12.5 -45t36.5 -17q16 0 29 8q6 2 11 2q13 0 21.5 -9.5t8.5 -23.5q0 -9 -5 -16.5t-13 -11.5q-29 -16 -69 -16q-53 0 -80 29t-27 84v316h-131q-13 0 -23 10t-10 23q0 14 10 23.5t23 9.5h348q14 0 24 -10z" />
    <glyph glyph-name="upsilon" unicode="&#x3c5;" horiz-adv-x="562" 
d="M126 48q-51 60 -51 164v238q0 15 11 26t27 11q15 0 26 -11t11 -26v-237q0 -74 33 -116t92 -42q75 0 118 55.5t43 139.5q0 104 -52 184q-5 8 -5 18q0 16 10.5 26.5t26.5 10.5q21 0 32 -18q33 -47 50 -104t17 -117q0 -75 -29.5 -134.5t-84 -93.5t-126.5 -34q-98 0 -149 60z
" />
    <glyph glyph-name="phi" unicode="&#x3c6;" horiz-adv-x="691" 
d="M576 59.5q-68 -65.5 -193 -70.5v-140q0 -15 -11 -26t-26 -11q-16 0 -27 11t-11 26v140q-124 5 -192.5 75t-68.5 187q0 75 38.5 133t103.5 94q9 5 18 5q14 0 24 -10t10 -24q0 -18 -15 -28q-49 -30 -75 -73.5t-26 -96.5q0 -90 48 -142.5t135 -53.5v383q0 20 15 35t35 14
q140 -3 213 -70t73 -181q0 -111 -68 -176.5zM518.5 104.5q47.5 48.5 47.5 131.5t-47.5 131t-135.5 49v-361q88 1 135.5 49.5z" />
    <glyph glyph-name="chi" unicode="&#x3c7;" horiz-adv-x="486" 
d="M465 -151q0 -15 -11 -26t-25 -11q-22 0 -32 18l-154 257l-154 -257q-10 -18 -32 -18q-14 0 -25 11t-11 26q0 10 6 19l173 290l-163 274q-5 10 -5 19q0 13 10.5 24.5t25.5 11.5q21 0 32 -17l143 -240l144 240q4 8 13 12.5t18 4.5q15 0 26 -11.5t11 -24.5q0 -10 -6 -19
l-163 -274l174 -290q5 -10 5 -19z" />
    <glyph glyph-name="psi" unicode="&#x3c8;" horiz-adv-x="708" 
d="M569 476q11 11 26 11t26.5 -11t11.5 -26v-228q0 -218 -242 -233v-140q0 -15 -11 -26t-26 -11t-26.5 11t-11.5 26v140q-241 15 -241 233v228q0 15 11 26t27 11q15 0 26 -11t11 -26v-228q0 -152 166 -166v578q0 15 11.5 26t26.5 11t26 -11t11 -26v-578q167 14 167 166v228
q0 15 11 26z" />
    <glyph glyph-name="omega" unicode="&#x3c9;" horiz-adv-x="771" 
d="M441.5 29.5q-37.5 41.5 -55.5 105.5q-43 -147 -158 -147q-55 0 -96 33.5t-63 89t-22 121.5q0 164 80 247q9 12 27 12q15 0 25.5 -10.5t10.5 -25.5q0 -10 -7 -21q-32 -39 -45 -89.5t-13 -112.5q0 -72 29.5 -124.5t82.5 -52.5q55 0 83 53.5t28 133.5v89q0 16 11.5 27
t26.5 11t26 -11t11 -27v-89q0 -80 28 -133.5t83 -53.5q53 0 82.5 52.5t29.5 124.5q0 129 -57 202q-7 9 -7 21q0 15 10.5 25.5t25.5 10.5q17 0 27 -12q79 -85 79 -247q0 -66 -22 -121.5t-62.5 -89t-95.5 -33.5q-65 0 -102.5 41.5z" />
    <glyph glyph-name="iotadieresis" unicode="&#x3ca;" horiz-adv-x="239" 
d="M102 17q-27 29 -27 84v349q0 15 11 26t27 11q15 0 26 -11t11 -26v-337q0 -25 10.5 -41t28.5 -17l7 -1q13 -1 20 -11t7 -22q0 -13 -9 -22.5t-22 -10.5h-10q-53 0 -80 29zM-23.5 600q-13.5 14 -13.5 33t13.5 32.5t32.5 13.5t32.5 -13.5t13.5 -32.5q0 -20 -13.5 -33.5
t-32.5 -13.5t-32.5 14zM182.5 600q-13.5 14 -13.5 33t14 32.5t33 13.5t32.5 -13.5t13.5 -32.5t-13.5 -33t-32.5 -14q-20 0 -33.5 14z" />
    <glyph glyph-name="upsilondieresis" unicode="&#x3cb;" horiz-adv-x="562" 
d="M126 48q-51 60 -51 164v238q0 15 11 26t27 11q15 0 26 -11t11 -26v-237q0 -74 33 -116t92 -42q75 0 118 55.5t43 139.5q0 104 -52 184q-5 8 -5 18q0 16 10.5 26.5t26.5 10.5q21 0 32 -18q33 -47 50 -104t17 -117q0 -75 -29.5 -134.5t-84 -93.5t-126.5 -34q-98 0 -149 60z
M139.5 600q-13.5 14 -13.5 33t13.5 32.5t32.5 13.5t32.5 -13.5t13.5 -32.5q0 -20 -13.5 -33.5t-32.5 -13.5t-32.5 14zM345.5 600q-13.5 14 -13.5 33t14 32.5t33 13.5t32.5 -13.5t13.5 -32.5t-13.5 -33t-32.5 -14q-20 0 -33.5 14z" />
    <glyph glyph-name="omicrontonos" unicode="&#x3cc;" horiz-adv-x="572" 
d="M160 22q-54 34 -83.5 92t-29.5 128t29.5 128t83.5 91.5t126 33.5t126 -33.5t83.5 -91.5t29.5 -128t-29.5 -128t-83.5 -92t-126 -34t-126 34zM372 80.5q36 25.5 55 68.5t19 93t-19 92.5t-55 68t-86 25.5t-86.5 -25.5t-55.5 -68t-19 -92.5t19 -93t55.5 -68.5t86.5 -25.5
t86 25.5zM274 593q-6 7 -5 15l14 156q1 13 11 22t23 9q15 0 25 -10t10 -24q0 -4 -2 -12l-42 -148q-1 -7 -6.5 -11t-13.5 -4t-14 7z" />
    <glyph glyph-name="upsilontonos" unicode="&#x3cd;" horiz-adv-x="562" 
d="M126 48q-51 60 -51 164v238q0 15 11 26t27 11q15 0 26 -11t11 -26v-237q0 -74 33 -116t92 -42q75 0 118 55.5t43 139.5q0 104 -52 184q-5 8 -5 18q0 16 10.5 26.5t26.5 10.5q21 0 32 -18q33 -47 50 -104t17 -117q0 -75 -29.5 -134.5t-84 -93.5t-126.5 -34q-98 0 -149 60z
M263 593q-6 7 -5 15l14 156q1 13 11 22t23 9q15 0 25 -10t10 -24q0 -4 -2 -12l-42 -148q-1 -7 -6.5 -11t-13.5 -4t-14 7z" />
    <glyph glyph-name="omegatonos" unicode="&#x3ce;" horiz-adv-x="771" 
d="M441.5 29.5q-37.5 41.5 -55.5 105.5q-43 -147 -158 -147q-55 0 -96 33.5t-63 89t-22 121.5q0 164 80 247q9 12 27 12q15 0 25.5 -10.5t10.5 -25.5q0 -10 -7 -21q-32 -39 -45 -89.5t-13 -112.5q0 -72 29.5 -124.5t82.5 -52.5q55 0 83 53.5t28 133.5v89q0 16 11.5 27
t26.5 11t26 -11t11 -27v-89q0 -80 28 -133.5t83 -53.5q53 0 82.5 52.5t29.5 124.5q0 129 -57 202q-7 9 -7 21q0 15 10.5 25.5t25.5 10.5q17 0 27 -12q79 -85 79 -247q0 -66 -22 -121.5t-62.5 -89t-95.5 -33.5q-65 0 -102.5 41.5zM374 593q-6 7 -5 15l14 156q1 13 11 22t23 9
q15 0 25 -10t10 -24q0 -4 -2 -12l-42 -148q-1 -7 -6.5 -11t-13.5 -4t-14 7z" />
    <glyph glyph-name="uni0401" unicode="&#x401;" horiz-adv-x="569" 
d="M89.5 11.5q-11.5 11.5 -11.5 32.5v579q0 21 11.5 32.5t32.5 11.5h360q15 0 26.5 -11t11.5 -26t-11.5 -26t-26.5 -11h-321v-215h314q15 0 26.5 -11t11.5 -26t-11.5 -26t-26.5 -11h-314v-230h321q15 0 26.5 -11t11.5 -26t-11.5 -26t-26.5 -11h-360q-21 0 -32.5 11.5z
M166.5 747q-13.5 14 -13.5 33t13.5 32.5t32.5 13.5t32.5 -13.5t13.5 -32.5q0 -20 -13.5 -33.5t-32.5 -13.5t-32.5 14zM372.5 747q-13.5 14 -13.5 33t14 32.5t33 13.5t32.5 -13.5t13.5 -32.5t-13.5 -33t-32.5 -14q-20 0 -33.5 14z" />
    <glyph glyph-name="uni0402" unicode="&#x402;" horiz-adv-x="769" 
d="M506 52.5q9 10.5 23 12.5q52 5 79 34.5t27 89.5v22q0 65 -34 97t-112 32q-46 0 -88.5 -8t-74.5 -23v-272q0 -17 -12 -29t-30 -12q-16 0 -28.5 12.5t-12.5 28.5v556h-178q-15 0 -26 11t-11 26t11 26t26 11h440q15 0 26 -11t11 -26t-11 -26t-26 -11h-179v-217q88 38 186 38
q107 0 156.5 -50t49.5 -153v-22q0 -181 -179 -199q-17 -2 -29.5 9.5t-12.5 28.5q0 14 9 24.5z" />
    <glyph glyph-name="uni0403" unicode="&#x403;" horiz-adv-x="544" 
d="M90 8q-12 12 -12 29v586q0 21 11.5 32.5t32.5 11.5h360q15 0 26.5 -11t11.5 -26t-11.5 -26t-26.5 -11h-321v-556q0 -16 -12 -28.5t-29 -12.5q-18 0 -30 12zM319 719q-10 0 -17.5 7t-7.5 17t8 18l106 102q7 8 20 8q12 0 20.5 -8.5t8.5 -20.5q0 -14 -10 -22l-112 -95
q-6 -6 -16 -6z" />
    <glyph glyph-name="uni0404" unicode="&#x404;" horiz-adv-x="676" 
d="M486 82q44 20 75 56q11 13 30 13q16 0 27.5 -11.5t11.5 -27.5q0 -17 -10 -27q-92 -97 -226 -97q-96 0 -174 43.5t-123.5 122.5t-45.5 179t45.5 179t123.5 122.5t174 43.5q136 0 226 -97q10 -10 10 -27q0 -16 -11.5 -27.5t-27.5 -11.5q-19 0 -30 13q-32 35 -75.5 55.5
t-91.5 20.5q-65 0 -119.5 -28.5t-89.5 -79.5t-44 -118h348q15 0 26 -11t11 -26t-11 -26t-26 -11h-350q6 -70 41 -125.5t91 -86t123 -30.5q48 0 92 20z" />
    <glyph glyph-name="uni0405" unicode="&#x405;" horiz-adv-x="586" 
d="M49 100q0 17 11.5 29t28.5 12q16 0 25 -9q81 -70 183 -70q81 0 119 34.5t38 80.5q0 37 -22.5 60.5t-55.5 36.5t-91 29q-74 19 -118.5 37t-76 54.5t-31.5 97.5q0 54 30 96t83.5 65.5t121.5 23.5q62 0 111.5 -17t94.5 -52q17 -11 17 -32q0 -16 -11.5 -28t-27.5 -12
q-13 0 -24 9q-35 29 -77.5 43.5t-88.5 14.5q-64 0 -103.5 -29.5t-39.5 -76.5q0 -31 21.5 -51.5t52.5 -32t88 -26.5q74 -20 120.5 -39.5t79.5 -59t33 -104.5q0 -52 -25 -96.5t-80.5 -72t-140.5 -27.5q-71 0 -129 21.5t-101 59.5q-15 13 -15 31z" />
    <glyph glyph-name="uni0406" unicode="&#x406;" horiz-adv-x="239" 
d="M90 8q-12 12 -12 29v593q0 17 12 29t30 12q17 0 29 -12t12 -29v-593q0 -16 -12 -28.5t-29 -12.5q-18 0 -30 12z" />
    </font>
</defs>
</svg>
